For All Mankind S02E10 The Gr Full Torrent Magnet Download

Download Torrent For All Mankind S02E10 The Gr Movie Full in HD Result. Movie For All Mankind S02E10 The Gr Torrent Download full. Movie For All Mankind S02E10 The Gr torrent Magnet Download Full. For All Mankind S02E10 The Gr Full Movie Torrent Download And Magnet Download For your PC And Mobiles. Latest Movie For All Mankind S02E10 The Gr Download Link In Bottom.

Torrent And Magnet Links Below

Media Information

General

Unique ID : 222471317844163847291322268858704514531 (0xA75E6AD2E256C4787F5EDC264A4CCDE3)

Complete name : For All Mankind S02E10 The Grey 1080p WEBrip x265 DDP5.1 D0ct0rLew[SEV].mkv

Format : Matroska

Format version : Version 4

File size : 3.05 GiB

Duration : 1 h 16 min

Overall bit rate : 5 708 kb/s

Movie name : For All Mankind S02E10 The Grey 1080p WEBrip x265 DDP5.1 D0ct0rLew[SEV]
Encoded date : UTC 2021-04-23 16:25:17

Writing application : mkvmerge v56.1.0 (‘My Friend’) 64-bit

Writing library : libebml v1.4.2 + libmatroska v1.6.4

Video

ID : 1

Format : HEVC

Format/Info : High Efficiency Video Coding

Format profile : Main [email protected]@Main

Codec ID : V_MPEGH/ISO/HEVC

Duration : 1 h 16 min

Bit rate : 4 933 kb/s

Width : 1 920 pixels

Height : 960 pixels

Display aspect ratio : 2.000

Frame rate mode : Constant

Frame rate : 23.976 (24000/1001) FPS

Color space : YUV

Chroma subsampling : 4:2:0

Bit depth : 10 bits

Bits/(Pixel*Frame) : 0.112

Stream size : 2.64 GiB (86%)

Writing library : x265 3.5+9+14-6c69ed37d:[Windows][GCC 10.2.0][64 bit] 10bit

Encoding settings : cpuid=1111039 / frame-threads=5 / numa-pools=32 / wpp / no-pmode / no-pme / no-psnr / no-ssim / log-level=2 / input-csp=1 / input-res=1920×960 / interlace=0 / total-frames=55048 / level-idc=0 / high-tier=1 / uhd-bd=0 / ref=4 / no-allow-non-conformance / no-repeat-headers / annexb / no-aud / no-hrd / info / hash=0 / no-temporal-layers / open-gop / min-keyint=23 / keyint=250 / gop-lookahead=0 / bframes=16 / b-adapt=2 / b-pyramid / bframe-bias=0 / rc-lookahead=90 / lookahead-slices=4 / scenecut=40 / hist-scenecut=0 / radl=0 / no-splice / no-intra-refresh / ctu=64 / min-cu-size=8 / no-rect / no-amp / max-tu-size=32 / tu-inter-depth=4 / tu-intra-depth=4 / limit-tu=0 / rdoq-level=2 / dynamic-rd=0.00 / no-ssim-rd / signhide / no-tskip / nr-intra=0 / nr-inter=0 / no-constrained-intra / no-strong-intra-smoothing / max-merge=5 / limit-refs=0 / limit-modes / me=3 / subme=7 / merange=92 / temporal-mvp / no-frame-dup / no-hme / weightp / no-weightb / no-analyze-src-pics / deblock=0:0 / sao / no-sao-non-deblock / rd=4 / selective-sao=4 / no-early-skip / rskip / no-fast-intra / no-tskip-fast / no-cu-lossless / no-b-intra / no-splitrd-skip / rdpenalty=0 / psy-rd=1.50 / psy-rdoq=1.00 / no-rd-refine / no-lossless / cbqpoffs=0 / crqpoffs=0 / rc=crf / crf=19.0 / qcomp=0.60 / qpstep=4 / stats-write=0 / stats-read=0 / ipratio=1.40 / pbratio=1.30 / aq-mode=3 / aq-strength=1.23 / cutree / zone-count=0 / no-strict-cbr / qg-size=32 / no-rc-grain / qpmax=69 / qpmin=0 / no-const-vbv / sar=0 / overscan=0 / videoformat=5 / range=0 / colorprim=1 / transfer=1 / colormatrix=1 / chromaloc=0 / display-window=0 / cll=0,0 / min-luma=0 / max-luma=1023 / log2-max-poc-lsb=8 / vui-timing-info / vui-hrd-info / slices=1 / no-opt-qp-pps / no-opt-ref-list-length-pps / no-multi-pass-opt-rps / scenecut-bias=0.05 / hist-threshold=0.03 / no-opt-cu-delta-qp / no-aq-motion / no-hdr10 / no-hdr10-opt / no-dhdr10-opt / no-idr-recovery-sei / analysis-reuse-level=0 / analysis-save-reuse-level=0 / analysis-load-reuse-level=0 / scale-factor=0 / refine-intra=0 / refine-inter=0 / refine-mv=1 / refine-ctu-distortion=0 / no-limit-sao / ctu-info=0 / no-lowpass-dct / refine-analysis-type=0 / copy-pic=1 / max-ausize-factor=1.0 / no-dynamic-refine / no-single-sei / no-hevc-aq / no-svt / no-field / qp-adaptation-range=1.00 / scenecut-aware-qp=0conformance-window-offsets / right=0 / bottom=0 / decoder-max-rate=0 / no-vbv-live-multi-pass

Language : English

Default : Yes

Forced : No

Color range : Limited

Color primaries : BT.709

Transfer characteristics : BT.709

Matrix coefficients : BT.709

Audio

ID : 2

Format : E-AC-3 JOC

Format/Info : Enhanced AC-3 with Joint Object Coding

Commercial name : Dolby Digital Plus with Dolby Atmos

Codec ID : A_EAC3

Duration : 1 h 16 min

Bit rate mode : Constant

Bit rate : 768 kb/s

Channel(s) : 6 channels

Channel layout : L R C LFE Ls Rs

Sampling rate : 48.0 kHz

Frame rate : 31.250 FPS (1536 SPF)

Compression mode : Lossy

Stream size : 420 MiB (13%)

Language : English

Service kind : Complete Main

Default : No

Forced : No

Complexity index : 16

Number of dynamic objects : 15

Bed channel count : 1 channel

Bed channel configuration : LFE

Text #1

ID : 3

Format : UTF-8

Codec ID : S_TEXT/UTF8

Codec ID/Info : UTF-8 Plain Text

Duration : 1 h 12 min

Bit rate : 59 b/s

Count of elements : 867

Stream size : 31.4 KiB (0%)

Title : English

Language : English

Default : No

Forced : No

Text #2

ID : 4

Format : UTF-8

Codec ID : S_TEXT/UTF8

Codec ID/Info : UTF-8 Plain Text

Duration : 1 h 16 min

Bit rate : 82 b/s

Count of elements : 896

Stream size : 46.1 KiB (0%)

Title : Arabic

Language : Arabic

Default : No

Forced : No

Text #3

ID : 5

Format : UTF-8

Codec ID : S_TEXT/UTF8

Codec ID/Info : UTF-8 Plain Text

Duration : 1 h 16 min

Bit rate : 86 b/s

Count of elements : 877

Stream size : 48.4 KiB (0%)

Title : Bulgarian

Language : Bulgarian

Default : No

Forced : No

Text #4

ID : 6

Format : UTF-8

Codec ID : S_TEXT/UTF8

Codec ID/Info : UTF-8 Plain Text

Duration : 1 h 16 min

Bit rate : 50 b/s

Count of elements : 897

Stream size : 27.9 KiB (0%)

Title : Chinese Simplified

Language : Chinese

Default : No

Forced : No

Text #5

ID : 7

Format : UTF-8

Codec ID : S_TEXT/UTF8

Codec ID/Info : UTF-8 Plain Text

Duration : 1 h 16 min

Bit rate : 51 b/s

Count of elements : 898

Stream size : 28.9 KiB (0%)

Title : Chinese Traditional

Language : Chinese

Default : No

Forced : No

Text #6

ID : 8

Format : UTF-8

Codec ID : S_TEXT/UTF8

Codec ID/Info : UTF-8 Plain Text

Duration : 1 h 16 min

Bit rate : 51 b/s

Count of elements : 860

Stream size : 28.8 KiB (0%)

Title : Czech

Language : Czech

Default : No

Forced : No

Text #7

ID : 9

Format : UTF-8

Codec ID : S_TEXT/UTF8

Codec ID/Info : UTF-8 Plain Text

Duration : 1 h 16 min

Bit rate : 56 b/s

Count of elements : 855

Stream size : 31.3 KiB (0%)

Title : Danish

Language : Danish

Default : No

Forced : No

Text #8

ID : 10

Format : UTF-8

Codec ID : S_TEXT/UTF8

Codec ID/Info : UTF-8 Plain Text

Duration : 1 h 16 min

Bit rate : 59 b/s

Count of elements : 790

Stream size : 33.5 KiB (0%)

Title : German

Language : German

Default : No

Forced : No

Text #9

ID : 11

Format : UTF-8

Codec ID : S_TEXT/UTF8

Codec ID/Info : UTF-8 Plain Text

Duration : 1 h 16 min

Bit rate : 96 b/s

Count of elements : 879

Stream size : 53.7 KiB (0%)

Title : Greek

Language : Greek

Default : No

Forced : No

Text #10

ID : 12

Format : UTF-8

Codec ID : S_TEXT/UTF8

Codec ID/Info : UTF-8 Plain Text

Duration : 1 h 16 min

Bit rate : 56 b/s

Count of elements : 911

Stream size : 31.6 KiB (0%)

Title : Latin America Spanish

Language : Spanish

Default : No

Forced : No

Text #11

ID : 13

Format : UTF-8

Codec ID : S_TEXT/UTF8

Codec ID/Info : UTF-8 Plain Text

Duration : 1 h 16 min

Bit rate : 59 b/s

Count of elements : 904

Stream size : 33.2 KiB (0%)

Title : European Spanish

Language : Spanish

Default : No

Forced : No

Text #12

ID : 14

Format : UTF-8

Codec ID : S_TEXT/UTF8

Codec ID/Info : UTF-8 Plain Text

Duration : 1 h 16 min

Bit rate : 52 b/s

Count of elements : 812

Stream size : 29.2 KiB (0%)

Title : Estonian

Language : Estonian

Default : No

Forced : No

Text #13

ID : 15

Format : UTF-8

Codec ID : S_TEXT/UTF8

Codec ID/Info : UTF-8 Plain Text

Duration : 1 h 16 min

Bit rate : 51 b/s

Count of elements : 876

Stream size : 28.5 KiB (0%)

Title : Finnish

Language : Finnish

Default : No

Forced : No

Text #14

ID : 16

Format : UTF-8

Codec ID : S_TEXT/UTF8

Codec ID/Info : UTF-8 Plain Text

Duration : 1 h 15 min

Bit rate : 49 b/s

Count of elements : 872

Stream size : 27.4 KiB (0%)

Title : French Canadian

Language : French

Default : No

Forced : No

Text #15

ID : 17

Format : UTF-8

Codec ID : S_TEXT/UTF8

Codec ID/Info : UTF-8 Plain Text

Duration : 1 h 15 min

Bit rate : 49 b/s

Count of elements : 871

Stream size : 27.4 KiB (0%)

Title : French

Language : French

Default : No

Forced : No

Text #16

ID : 18

Format : UTF-8

Codec ID : S_TEXT/UTF8

Codec ID/Info : UTF-8 Plain Text

Duration : 1 h 16 min

Bit rate : 77 b/s

Count of elements : 898

Stream size : 43.2 KiB (0%)

Title : Hebrew

Language : Hebrew

Default : No

Forced : No

Text #17

ID : 19

Format : UTF-8

Codec ID : S_TEXT/UTF8

Codec ID/Info : UTF-8 Plain Text

Duration : 1 h 16 min

Bit rate : 150 b/s

Count of elements : 897

Stream size : 83.9 KiB (0%)

Title : Hindi

Language : Hindi

Default : No

Forced : No

Text #18

ID : 20

Format : UTF-8

Codec ID : S_TEXT/UTF8

Codec ID/Info : UTF-8 Plain Text

Duration : 1 h 16 min

Bit rate : 53 b/s

Count of elements : 885

Stream size : 29.9 KiB (0%)

Title : Hungarian

Language : Hungarian

Default : No

Forced : No

Text #19

ID : 21

Format : UTF-8

Codec ID : S_TEXT/UTF8

Codec ID/Info : UTF-8 Plain Text

Duration : 1 h 16 min

Bit rate : 54 b/s

Count of elements : 895

Stream size : 30.2 KiB (0%)

Title : Indonesian

Language : Indonesian

Default : No

Forced : No

Text #20

ID : 22

Format : UTF-8

Codec ID : S_TEXT/UTF8

Codec ID/Info : UTF-8 Plain Text

Duration : 1 h 16 min

Bit rate : 58 b/s

Count of elements : 865

Stream size : 32.8 KiB (0%)

Title : Italian

Language : Italian

Default : No

Forced : No

Text #21

ID : 23

Format : UTF-8

Codec ID : S_TEXT/UTF8

Codec ID/Info : UTF-8 Plain Text

Duration : 1 h 16 min

Bit rate : 47 b/s

Count of elements : 848

Stream size : 26.6 KiB (0%)

Title : Japanese

Language : Japanese

Default : No

Forced : No

Text #22

ID : 24

Format : UTF-8

Codec ID : S_TEXT/UTF8

Codec ID/Info : UTF-8 Plain Text

Duration : 1 h 16 min

Bit rate : 59 b/s

Count of elements : 897

Stream size : 33.1 KiB (0%)

Language : Korean

Default : No

Forced : No

Text #23

ID : 25

Format : UTF-8

Codec ID : S_TEXT/UTF8

Codec ID/Info : UTF-8 Plain Text

Duration : 1 h 16 min

Bit rate : 54 b/s

Count of elements : 887

Stream size : 30.7 KiB (0%)

Title : Lithuanian

Language : Lithuanian

Default : No

Forced : No

Text #24

ID : 26

Format : UTF-8

Codec ID : S_TEXT/UTF8

Codec ID/Info : UTF-8 Plain Text

Duration : 1 h 16 min

Bit rate : 59 b/s

Count of elements : 893

Stream size : 33.3 KiB (0%)

Title : Latvian

Language : Latvian

Default : No

Forced : No

Text #25

ID : 27

Format : UTF-8

Codec ID : S_TEXT/UTF8

Codec ID/Info : UTF-8 Plain Text

Duration : 1 h 16 min

Bit rate : 57 b/s

Count of elements : 895

Stream size : 32.3 KiB (0%)

Title : Malay

Language : Malay

Default : No

Forced : No

Text #26

ID : 28

Format : UTF-8

Codec ID : S_TEXT/UTF8

Codec ID/Info : UTF-8 Plain Text

Duration : 1 h 16 min

Bit rate : 50 b/s

Count of elements : 698

Stream size : 27.9 KiB (0%)

Title : Dutch

Language : Dutch

Default : No

Forced : No

Text #27

ID : 29

Format : UTF-8

Codec ID : S_TEXT/UTF8

Codec ID/Info : UTF-8 Plain Text

Duration : 1 h 16 min

Bit rate : 52 b/s

Count of elements : 865

Stream size : 29.3 KiB (0%)

Title : Norwegian

Language : Norwegian

Default : No

Forced : No

Text #28

ID : 30

Format : UTF-8

Codec ID : S_TEXT/UTF8

Codec ID/Info : UTF-8 Plain Text

Duration : 1 h 16 min

Bit rate : 53 b/s

Count of elements : 892

Stream size : 29.6 KiB (0%)

Title : Polish

Language : Polish

Default : No

Forced : No

Text #29

ID : 31

Format : UTF-8

Codec ID : S_TEXT/UTF8

Codec ID/Info : UTF-8 Plain Text

Duration : 1 h 16 min

Bit rate : 54 b/s

Count of elements : 887

Stream size : 30.3 KiB (0%)

Title : Portuguese

Language : Portuguese

Default : No

Forced : No

Text #30

ID : 32

Format : UTF-8

Codec ID : S_TEXT/UTF8

Codec ID/Info : UTF-8 Plain Text

Duration : 1 h 16 min

Bit rate : 53 b/s

Count of elements : 874

Stream size : 29.7 KiB (0%)

Title : Portuguese Brazilian

Language : Portuguese

Default : No

Forced : No

Text #31

ID : 33

Format : UTF-8

Codec ID : S_TEXT/UTF8

Codec ID/Info : UTF-8 Plain Text

Duration : 1 h 16 min

Bit rate : 83 b/s

Count of elements : 908

Stream size : 46.7 KiB (0%)

Title : Russian

Language : Russian

Default : No

Forced : No

Text #32

ID : 34

Format : UTF-8

Codec ID : S_TEXT/UTF8

Codec ID/Info : UTF-8 Plain Text

Duration : 1 h 16 min

Bit rate : 50 b/s

Count of elements : 888

Stream size : 28.4 KiB (0%)

Title : Slovak

Language : Slovak

Default : No

Forced : No

Text #33

ID : 35

Format : UTF-8

Codec ID : S_TEXT/UTF8

Codec ID/Info : UTF-8 Plain Text

Duration : 1 h 16 min

Bit rate : 46 b/s

Count of elements : 878

Stream size : 26.1 KiB (0%)

Title : Slovenian

Language : Slovenian

Default : No

Forced : No

Text #34

ID : 36

Format : UTF-8

Codec ID : S_TEXT/UTF8

Codec ID/Info : UTF-8 Plain Text

Duration : 1 h 16 min

Bit rate : 55 b/s

Count of elements : 891

Stream size : 31.0 KiB (0%)

Title : Swedish

Language : Swedish

Default : No

Forced : No

Text #35

ID : 37

Format : UTF-8

Codec ID : S_TEXT/UTF8

Codec ID/Info : UTF-8 Plain Text

Duration : 1 h 16 min

Bit rate : 186 b/s

Count of elements : 896

Stream size : 104 KiB (0%)

Title : Tamil

Language : Tamil

Default : No

Forced : No

Text #36

ID : 38

Format : UTF-8

Codec ID : S_TEXT/UTF8

Codec ID/Info : UTF-8 Plain Text

Duration : 1 h 16 min

Bit rate : 157 b/s

Count of elements : 897

Stream size : 87.9 KiB (0%)

Title : Telugu

Language : Telugu

Default : No

Forced : No

Text #37

ID : 39

Format : UTF-8

Codec ID : S_TEXT/UTF8

Codec ID/Info : UTF-8 Plain Text

Duration : 1 h 16 min

Bit rate : 145 b/s

Count of elements : 897

Stream size : 81.0 KiB (0%)

Title : Thai

Language : Thai

Default : No

Forced : No

Text #38

ID : 40

Format : UTF-8

Codec ID : S_TEXT/UTF8

Codec ID/Info : UTF-8 Plain Text

Duration : 1 h 16 min

Bit rate : 56 b/s

Count of elements : 894

Stream size : 31.4 KiB (0%)

Title : Turkish

Language : Turkish

Default : No

Forced : No

Text #39

ID : 41

Format : UTF-8

Codec ID : S_TEXT/UTF8

Codec ID/Info : UTF-8 Plain Text

Duration : 1 h 16 min

Bit rate : 88 b/s

Count of elements : 897

Stream size : 49.3 KiB (0%)

Title : Ukrainian

Language : Ukrainian

Default : No

Forced : No

Text #40

ID : 42

Format : UTF-8

Codec ID : S_TEXT/UTF8

Codec ID/Info : UTF-8 Plain Text

Duration : 1 h 16 min

Bit rate : 74 b/s

Count of elements : 896

Stream size : 41.8 KiB (0%)

Title : Vietnamese

Language : Vietnamese

Default : No

Forced : No

Text #41

ID : 43

Format : UTF-8

Codec ID : S_TEXT/UTF8

Codec ID/Info : UTF-8 Plain Text

Duration : 1 h 16 min

Bit rate : 51 b/s

Count of elements : 898

Stream size : 29.0 KiB (0%)

Title : Chinese Yue

Language : Chinese

Default : No

Forced : No

We have no issue with individuals posting or re-uploading our torrents on a platform we aren’t on. However, if this is something you’d like to do, please do so in a ‘as-is’ format. We ask that you do not create a new torrent, include all descriptions you see above including the SEV logo, tags, notes and screenshots.
If you’d like to become a permanent poster on a website we don’t post to, feel free to get in contact with a Sublime Encoded Video member.

We are recruiting/training new members for SEV & seedbox providers as well as people to help out with subtitles.
As you already know, we deliver quality, so you know the standard.
If you’re interested, feel free to contact any of the team members.

For All Mankind S02E10 The GrDownload Torrent Magnet

#Mankind #S02E10