Flora.and.Ulysses.2021.1080p. Full Torrent Magnet Download

Download Torrent Flora.and.Ulysses.2021.1080p. Movie Full in HD Result. Movie Flora.and.Ulysses.2021.1080p. Torrent Download full. Movie Flora.and.Ulysses.2021.1080p. torrent Magnet Download Full. Flora.and.Ulysses.2021.1080p. Full Movie Torrent Download And Magnet Download For your PC And Mobiles. Latest Movie Flora.and.Ulysses.2021.1080p. Download Link In Bottom.

Torrent And Magnet Links Below

https://www.imdb.com/title/tt8521736/

Code:

Video

ID : 1

Format : AVC

Format/Info : Advanced Video Codec

Format profile : [email protected]
Format settings : CABAC / 4 Ref Frames

Format settings, CABAC : Yes

Format settings, Reference frames : 4 frames

Codec ID : V_MPEG4/ISO/AVC

Duration : 1 h 35 min

Bit rate mode : Variable

Bit rate : 6 844 kb/s

Maximum bit rate : 12.7 Mb/s

Width : 1 920 pixels

Height : 1 080 pixels

Display aspect ratio : 16:9

Frame rate mode : Constant

Frame rate : 23.976 (24000/1001) FPS

Color space : YUV

Chroma subsampling : 4:2:0

Bit depth : 8 bits

Scan type : Progressive

Bits/(Pixel*Frame) : 0.138

Stream size : 4.54 GiB (90%)

Default : Yes

Forced : No

Color range : Limited

Color primaries : BT.709

Transfer characteristics : BT.709

Matrix coefficients : BT.709

Audio

ID : 2

Format : E-AC-3 JOC

Format/Info : Enhanced AC-3 with Joint Object Coding

Commercial name : Dolby Digital Plus with Dolby Atmos

Codec ID : A_EAC3

Duration : 1 h 35 min

Bit rate mode : Constant

Bit rate : 768 kb/s

Channel(s) : 6 channels

Channel layout : L R C LFE Ls Rs

Sampling rate : 48.0 kHz

Frame rate : 31.250 FPS (1536 SPF)

Compression mode : Lossy

Stream size : 522 MiB (10%)

Title : English

Language : English

Service kind : Complete Main

Default : Yes

Forced : No

Complexity index : 16

Number of dynamic objects : 15

Bed channel count : 1 channel

Bed channel configuration : LFE

Text #1

ID : 3

Format : UTF-8

Codec ID : S_TEXT/UTF8

Codec ID/Info : UTF-8 Plain Text

Duration : 1 h 24 min

Bit rate : 72 b/s

Count of elements : 1558

Stream size : 45.2 KiB (0%)

Title : English (SDH)

Language : English

Default : Yes

Forced : No

Text #2

ID : 4

Format : UTF-8

Codec ID : S_TEXT/UTF8

Codec ID/Info : UTF-8 Plain Text

Duration : 1 h 30 min

Bit rate : 54 b/s

Count of elements : 1169

Stream size : 35.8 KiB (0%)

Title : French

Language : French

Default : No

Forced : No

Flora.and.Ulysses.2021.1080p.Download Torrent Magnet

#FloraandUlysses20211080p