Flashback.(The.Education.of.F Full Torrent Magnet Download

Download Torrent Flashback.(The.Education.of.F Movie Full in HD Result. Movie Flashback.(The.Education.of.F Torrent Download full. Movie Flashback.(The.Education.of.F torrent Magnet Download Full. Flashback.(The.Education.of.F Full Movie Torrent Download And Magnet Download For your PC And Mobiles. Latest Movie Flashback.(The.Education.of.F Download Link In Bottom.

Torrent And Magnet Links Below

Flashback.(The.Education.of.Fredrick.Fitzell).2021.HDRip.XviD.B4ND1T69

Director Christopher MacBride

Writer Christopher MacBride

Stars Dylan O’Brien, Maika Monroe, Amanda Brugel, Liisa Repo-Martell, Hannah Gross

Plot/Story:

After a chance encounter with a man forgotten from his youth, Fred literally and metaphorically journeys into his past.

General

Complete name : Flashback.(The.Education.of.Fredrick.Fitzell).2021.HDRip.XviD.B4ND1T69.avi

Format : AVI

Format/Info : Audio Video Interleave

File size : 419 MiB

Duration : 1 h 37 min

Overall bit rate : 603 kb/s

Subtitles : Yes…Included(HI)

Video

ID : 0

Format : MPEG-4 Visual

Format profile : Advanced [email protected]
Format settings, BVOP : 2

Format settings, QPel : No

Format settings, GMC : No warppoints

Format settings, Matrix : Default (H.263)

Codec ID : XVID

Codec ID/Hint : XviD

Duration : 1 h 37 min

Bit rate : 462 kb/s

Width : 720 pixels

Height : 304 pixels

Display aspect ratio : 2.35:1

Frame rate : 24.000 FPS

Color space : YUV

Chroma subsampling : 4:2:0

Bit depth : 8 bits

Scan type : Progressive

Compression mode : Lossy

Bits/(Pixel*Frame) : 0.088

Stream size : 321 MiB (77%)

Writing library : XviD 64

Audio

ID : 1

Format : MPEG Audio

Format version : Version 1

Format profile : Layer 3

Codec ID : 55

Codec ID/Hint : MP3

Duration : 1 h 37 min

Bit rate mode : Constant

Bit rate : 128 kb/s

Channel(s) : 2 channels

Sampling rate : 48.0 kHz

Compression mode : Lossy

Stream size : 88.9 MiB (21%)

Alignment : Aligned on interleaves

Interleave, duration : 24 ms (0.58 video frame)

Screenshots:









Please Seed For As Long As Possible

Or At Least 1:1 Ratio…Thanks

Enjoy Peeps

Flashback.(The.Education.of.FDownload Torrent Magnet

#FlashbackTheEducationofF