Finding.Ohana.2021.WEBRip.Xvi Full Torrent Magnet Download

Download Torrent Finding.Ohana.2021.WEBRip.Xvi Movie Full in HD Result. Movie Finding.Ohana.2021.WEBRip.Xvi Torrent Download full. Movie Finding.Ohana.2021.WEBRip.Xvi torrent Magnet Download Full. Finding.Ohana.2021.WEBRip.Xvi Full Movie Torrent Download And Magnet Download For your PC And Mobiles. Latest Movie Finding.Ohana.2021.WEBRip.Xvi Download Link In Bottom.

Torrent And Magnet Links Below

Video

ID : 0

Format : MPEG-4 Visual

Format profile : [email protected]
Format settings, BVOP : No

Format settings, QPel : No

Format settings, GMC : No warppoints

Format settings, Matrix : Default (H.263)

Codec ID : XVID

Codec ID/Hint : XviD

Duration : 2 h 3 min

Bit rate : 1 565 kb/s

Width : 720 pixels

Height : 400 pixels

Display aspect ratio : 16:9

Frame rate : 24.000 FPS

Color space : YUV

Chroma subsampling : 4:2:0

Bit depth : 8 bits

Scan type : Progressive

Compression mode : Lossy

Bits/(Pixel*Frame) : 0.226

Stream size : 1.35 GiB (88%)

Title : RARBG – Finding.Ohana.2021.WEBRip.XviD.MP3-XVID

Writing library : Lavc58.35.100

Audio

ID : 1

Format : MPEG Audio

Format version : Version 1

Format profile : Layer 3

Format settings : Joint stereo

Codec ID : 55

Codec ID/Hint : MP3

Duration : 2 h 3 min

Bit rate mode : Constant

Bit rate : 192 kb/s

Channel(s) : 2 channels

Sampling rate : 48.0 kHz

Compression mode : Lossy

Stream size : 169 MiB (11%)

Alignment : Aligned on interleaves

Interleave, duration : 24 ms (0.58 video frame)

Interleave, preload duration : 24 ms

Title : RARBG – Finding.Ohana.2021.WEBRip.XviD.MP3-XVID

Writing library : LAME3.99.5


Finding.Ohana.2021.WEBRip.XviDownload Torrent Magnet

#FindingOhana2021WEBRipXvi