Finding.Ohana.2021.1080p.NF.W Full Torrent Magnet Download

Download Torrent Finding.Ohana.2021.1080p.NF.W Movie Full in HD Result. Movie Finding.Ohana.2021.1080p.NF.W Torrent Download full. Movie Finding.Ohana.2021.1080p.NF.W torrent Magnet Download Full. Finding.Ohana.2021.1080p.NF.W Full Movie Torrent Download And Magnet Download For your PC And Mobiles. Latest Movie Finding.Ohana.2021.1080p.NF.W Download Link In Bottom.

Torrent And Magnet Links Below

General

Unique ID : 174510553984332876755039034410569870122 (0x834982996320AC5E77323A9C3374AB2A)

Complete name : /data/disk6/bonsaihd/files/downloads/Finding.Ohana.2021.1080p.NF.WEB-DL.DD+5.1.x264-Shadow/Finding.Ohana.2021.1080p.NF.WEB-DL.DD+5.1.x264-Telly.mkv

Format : Matroska

Format version : Version 4 / Version 2

File size : 7.32 GiB

Duration : 2h 3mn

Overall bit rate mode : Variable

Overall bit rate : 8 509 Kbps

Movie name : Telly

Encoded date : UTC 2021-01-29 08:04:07

Writing application : mkvmerge v52.0.0 (‘Secret For The Mad’) 64-bit

Writing library : libebml v1.4.1 + libmatroska v1.6.2

Video

ID : 1

Format : AVC

Format/Info : Advanced Video Codec

Format profile : [email protected]
Format settings, CABAC : Yes

Format settings, ReFrames : 3 frames

Codec ID : V_MPEG4/ISO/AVC

Duration : 2h 3mn

Bit rate mode : Variable

Bit rate : 7 095 Kbps

Nominal bit rate : 7 500 Kbps

Maximum bit rate : 11.2 Mbps

Width : 1 920 pixels

Height : 1 080 pixels

Display aspect ratio : 16:9

Frame rate mode : Constant

Frame rate : 24.000 fps

Color space : YUV

Chroma subsampling : 4:2:0

Bit depth : 8 bits

Scan type : Progressive

Bits/(Pixel*Frame) : 0.143

Stream size : 6.10 GiB (83%)

Writing library : x264 core 148 r2722 1b0121b

Encoding settings : cabac=1 / ref=3 / deblock=1:0:0 / analyse=0x1:0x111 / me=umh / subme=10 / psy=1 / psy_rd=1.00:0.00 / mixed_ref=1 / me_range=24 / chroma_me=1 / trellis=2 / 8x8dct=0 / cqm=0 / deadzone=21,11 / fast_pskip=1 / chroma_qp_offset=-2 / threads=6 / lookahead_threads=1 / sliced_threads=0 / nr=0 / decimate=1 / interlaced=0 / bluray_compat=0 / stitchable=1 / constrained_intra=0 / bframes=2 / b_pyramid=0 / b_adapt=2 / b_bias=0 / direct=3 / weightb=1 / open_gop=0 / weightp=2 / keyint=250 / keyint_min=24 / scenecut=0 / intra_refresh=0 / rc_lookahead=48 / rc=2pass / mbtree=1 / bitrate=7500 / ratetol=1.0 / qcomp=0.50 / qpmin=6 / qpmax=51 / qpstep=4 / cplxblur=20.0 / qblur=0.5 / vbv_maxrate=11250 / vbv_bufsize=15000 / nal_hrd=vbr / filler=0 / ip_ratio=1.40 / aq=1:1.00

Default : Yes

Forced : No

Audio #1

ID : 2

Format : E-AC-3

Format/Info : Audio Coding 3

Format settings, Endianness : Big

Codec ID : A_EAC3

Duration : 2h 3mn

Bit rate mode : Constant

Bit rate : 768 Kbps

Channel(s) : 6 channels

Channel positions : Front: L C R, Side: L R, LFE

Sampling rate : 48.0 KHz

Frame rate : 187.500 fps (256 spf)

Compression mode : Lossy

Stream size : 677 MiB (9%)

Title : English

Language : English

Default : No

Forced : No

Audio #2

ID : 3

Format : E-AC-3

Format/Info : Audio Coding 3

Format settings, Endianness : Big

Codec ID : A_EAC3

Duration : 2h 3mn

Bit rate mode : Constant

Bit rate : 640 Kbps

Channel(s) : 6 channels

Channel positions : Front: L C R, Side: L R, LFE

Sampling rate : 48.0 KHz

Frame rate : 187.500 fps (256 spf)

Compression mode : Lossy

Stream size : 564 MiB (8%)

Title : Audio Description

Language : English

Default : No

Forced : No

Text #1

ID : 4

Format : UTF-8

Codec ID : S_TEXT/UTF8

Codec ID/Info : UTF-8 Plain Text

Duration : 1h 59mn

Bit rate : 89 bps

Count of elements : 1839

Stream size : 78.3 KiB (0%)

Title : English

Language : English

Default : No

Forced : No

Text #2

ID : 5

Format : UTF-8

Codec ID : S_TEXT/UTF8

Codec ID/Info : UTF-8 Plain Text

Duration : 1h 44mn

Bit rate : 0 bps

Count of elements : 24

Stream size : 551 Bytes (0%)

Title : Forced

Language : English

Default : No

Forced : Yes

Text #3

ID : 6

Format : UTF-8

Codec ID : S_TEXT/UTF8

Codec ID/Info : UTF-8 Plain Text

Duration : 1h 59mn

Bit rate : 89 bps

Count of elements : 1839

Stream size : 78.3 KiB (0%)

Title : English

Language : English

Default : No

Forced : No

Text #4

ID : 7

Format : UTF-8

Codec ID : S_TEXT/UTF8

Codec ID/Info : UTF-8 Plain Text

Duration : 1h 44mn

Bit rate : 0 bps

Count of elements : 24

Stream size : 551 Bytes (0%)

Title : Forced

Language : English

Default : No

Forced : Yes

Text #5

ID : 8

Format : UTF-8

Codec ID : S_TEXT/UTF8

Codec ID/Info : UTF-8 Plain Text

Duration : 1h 52mn

Bit rate : 108 bps

Count of elements : 1542

Stream size : 89.5 KiB (0%)

Title : Arabic

Language : Arabic

Default : No

Forced : No

Text #6

ID : 9

Format : UTF-8

Codec ID : S_TEXT/UTF8

Codec ID/Info : UTF-8 Plain Text

Duration : 1h 59mn

Bit rate : 63 bps

Count of elements : 1551

Stream size : 55.5 KiB (0%)

Title : Chinese Simplified

Language : Chinese

Default : No

Forced : No

Text #7

ID : 10

Format : UTF-8

Codec ID : S_TEXT/UTF8

Codec ID/Info : UTF-8 Plain Text

Duration : 1h 52mn

Bit rate : 68 bps

Count of elements : 1548

Stream size : 56.4 KiB (0%)

Title : Chinese Traditional

Language : Chinese

Default : No

Forced : No

Text #8

ID : 11

Format : UTF-8

Codec ID : S_TEXT/UTF8

Codec ID/Info : UTF-8 Plain Text

Duration : 1h 59mn

Bit rate : 49 bps

Count of elements : 1514

Stream size : 43.5 KiB (0%)

Title : Croatian

Language : Croatian

Default : No

Forced : No

Text #9

ID : 12

Format : UTF-8

Codec ID : S_TEXT/UTF8

Codec ID/Info : UTF-8 Plain Text

Duration : 1h 59mn

Bit rate : 52 bps

Count of elements : 1613

Stream size : 45.9 KiB (0%)

Title : Czech

Language : Czech

Default : No

Forced : No

Text #10

ID : 13

Format : UTF-8

Codec ID : S_TEXT/UTF8

Codec ID/Info : UTF-8 Plain Text

Duration : 1h 59mn

Bit rate : 50 bps

Count of elements : 1447

Stream size : 44.5 KiB (0%)

Title : Danish

Language : Danish

Default : No

Forced : No

Text #11

ID : 14

Format : UTF-8

Codec ID : S_TEXT/UTF8

Codec ID/Info : UTF-8 Plain Text

Duration : 1h 59mn

Bit rate : 52 bps

Count of elements : 1304

Stream size : 45.8 KiB (0%)

Title : Dutch

Language : Dutch

Default : No

Forced : No

Text #12

ID : 15

Format : UTF-8

Codec ID : S_TEXT/UTF8

Codec ID/Info : UTF-8 Plain Text

Duration : 1h 59mn

Bit rate : 54 bps

Count of elements : 1433

Stream size : 47.5 KiB (0%)

Title : Finnish

Language : Finnish

Default : No

Forced : No

Text #13

ID : 16

Format : UTF-8

Codec ID : S_TEXT/UTF8

Codec ID/Info : UTF-8 Plain Text

Duration : 1h 59mn

Bit rate : 54 bps

Count of elements : 1519

Stream size : 48.0 KiB (0%)

Title : French

Language : French

Default : No

Forced : No

Text #14

ID : 17

Format : UTF-8

Codec ID : S_TEXT/UTF8

Codec ID/Info : UTF-8 Plain Text

Duration : 1h 59mn

Bit rate : 53 bps

Count of elements : 1537

Stream size : 46.6 KiB (0%)

Title : German

Language : German

Default : No

Forced : No

Text #15

ID : 18

Format : UTF-8

Codec ID : S_TEXT/UTF8

Codec ID/Info : UTF-8 Plain Text

Duration : 1h 59mn

Bit rate : 86 bps

Count of elements : 1671

Stream size : 76.2 KiB (0%)

Title : Greek

Language : Greek

Default : No

Forced : No

Text #16

ID : 19

Format : UTF-8

Codec ID : S_TEXT/UTF8

Codec ID/Info : UTF-8 Plain Text

Duration : 1h 59mn

Bit rate : 87 bps

Count of elements : 1540

Stream size : 76.7 KiB (0%)

Title : Hebrew

Language : Hebrew

Default : No

Forced : No

Text #17

ID : 20

Format : UTF-8

Codec ID : S_TEXT/UTF8

Codec ID/Info : UTF-8 Plain Text

Duration : 1h 59mn

Bit rate : 55 bps

Count of elements : 1460

Stream size : 48.9 KiB (0%)

Title : Hungarian

Language : Hungarian

Default : No

Forced : No

Text #18

ID : 21

Format : UTF-8

Codec ID : S_TEXT/UTF8

Codec ID/Info : UTF-8 Plain Text

Duration : 1h 59mn

Bit rate : 51 bps

Count of elements : 1539

Stream size : 45.0 KiB (0%)

Title : Indonesian

Language : Indonesian

Default : No

Forced : No

Text #19

ID : 22

Format : UTF-8

Codec ID : S_TEXT/UTF8

Codec ID/Info : UTF-8 Plain Text

Duration : 1h 59mn

Bit rate : 52 bps

Count of elements : 1525

Stream size : 46.1 KiB (0%)

Title : Italian

Language : Italian

Default : No

Forced : No

Text #20

ID : 23

Format : UTF-8

Codec ID : S_TEXT/UTF8

Codec ID/Info : UTF-8 Plain Text

Duration : 1h 59mn

Bit rate : 48 bps

Count of elements : 1610

Stream size : 42.4 KiB (0%)

Title : Japanese

Language : Japanese

Default : No

Forced : No

Text #21

ID : 24

Format : UTF-8

Codec ID : S_TEXT/UTF8

Codec ID/Info : UTF-8 Plain Text

Duration : 1h 59mn

Bit rate : 68 bps

Count of elements : 1594

Stream size : 60.1 KiB (0%)

Title : Korean

Language : Korean

Default : No

Forced : No

Text #22

ID : 25

Format : UTF-8

Codec ID : S_TEXT/UTF8

Codec ID/Info : UTF-8 Plain Text

Duration : 1h 59mn

Bit rate : 50 bps

Count of elements : 1543

Stream size : 44.4 KiB (0%)

Title : Malay

Language : Malay

Default : No

Forced : No

Text #23

ID : 26

Format : UTF-8

Codec ID : S_TEXT/UTF8

Codec ID/Info : UTF-8 Plain Text

Duration : 1h 59mn

Bit rate : 47 bps

Count of elements : 1418

Stream size : 41.4 KiB (0%)

Title : Norwegian Bokmal

Language : Norwegian Bokmal

Default : No

Forced : No

Text #24

ID : 27

Format : UTF-8

Codec ID : S_TEXT/UTF8

Codec ID/Info : UTF-8 Plain Text

Duration : 1h 59mn

Bit rate : 51 bps

Count of elements : 1519

Stream size : 45.4 KiB (0%)

Title : Polish

Language : Polish

Default : No

Forced : No

Text #25

ID : 28

Format : UTF-8

Codec ID : S_TEXT/UTF8

Codec ID/Info : UTF-8 Plain Text

Duration : 1h 59mn

Bit rate : 51 bps

Count of elements : 1506

Stream size : 45.3 KiB (0%)

Title : Portuguese

Language : Portuguese

Default : No

Forced : No

Text #26

ID : 29

Format : UTF-8

Codec ID : S_TEXT/UTF8

Codec ID/Info : UTF-8 Plain Text

Duration : 1h 59mn

Bit rate : 54 bps

Count of elements : 1575

Stream size : 47.5 KiB (0%)

Title : Brazilian Portuguese

Language : Portuguese

Default : No

Forced : No

Text #27

ID : 30

Format : UTF-8

Codec ID : S_TEXT/UTF8

Codec ID/Info : UTF-8 Plain Text

Duration : 1h 59mn

Bit rate : 60 bps

Count of elements : 1533

Stream size : 53.5 KiB (0%)

Title : Romanian

Language : Romanian

Default : No

Forced : No

Text #28

ID : 31

Format : UTF-8

Codec ID : S_TEXT/UTF8

Codec ID/Info : UTF-8 Plain Text

Duration : 1h 59mn

Bit rate : 86 bps

Count of elements : 1565

Stream size : 75.9 KiB (0%)

Title : Russian

Language : Russian

Default : No

Forced : No

Text #29

ID : 32

Format : UTF-8

Codec ID : S_TEXT/UTF8

Codec ID/Info : UTF-8 Plain Text

Duration : 1h 59mn

Bit rate : 52 bps

Count of elements : 1524

Stream size : 45.8 KiB (0%)

Title : Spanish

Language : Spanish

Default : No

Forced : No

Text #30

ID : 33

Format : UTF-8

Codec ID : S_TEXT/UTF8

Codec ID/Info : UTF-8 Plain Text

Duration : 1h 59mn

Bit rate : 50 bps

Count of elements : 1569

Stream size : 44.7 KiB (0%)

Title : European Spanish

Language : Spanish

Default : No

Forced : No

Text #31

ID : 34

Format : UTF-8

Codec ID : S_TEXT/UTF8

Codec ID/Info : UTF-8 Plain Text

Duration : 1h 59mn

Bit rate : 53 bps

Count of elements : 1389

Stream size : 46.5 KiB (0%)

Title : Swedish

Language : Swedish

Default : No

Forced : No

Text #32

ID : 35

Format : UTF-8

Codec ID : S_TEXT/UTF8

Codec ID/Info : UTF-8 Plain Text

Duration : 1h 59mn

Bit rate : 142 bps

Count of elements : 1549

Stream size : 125 KiB (0%)

Title : Thai

Language : Thai

Default : No

Forced : No

Text #33

ID : 36

Format : UTF-8

Codec ID : S_TEXT/UTF8

Codec ID/Info : UTF-8 Plain Text

Duration : 1h 59mn

Bit rate : 53 bps

Count of elements : 1541

Stream size : 47.1 KiB (0%)

Title : Turkish

Language : Turkish

Default : No

Forced : No

Text #34

ID : 37

Format : UTF-8

Codec ID : S_TEXT/UTF8

Codec ID/Info : UTF-8 Plain Text

Duration : 1h 59mn

Bit rate : 75 bps

Count of elements : 1493

Stream size : 66.0 KiB (0%)

Title : Vietnamese

Language : Vietnamese

Default : No

Forced : N0


Finding.Ohana.2021.1080p.NF.WDownload Torrent Magnet

#FindingOhana20211080pNFW