Fifty.Shades.of.Grey.2015.UNR Full Torrent Magnet Download

Download Torrent Fifty.Shades.of.Grey.2015.UNR Movie Full in HD Result. Movie Fifty.Shades.of.Grey.2015.UNR Torrent Download full. Movie Fifty.Shades.of.Grey.2015.UNR torrent Magnet Download Full. Fifty.Shades.of.Grey.2015.UNR Full Movie Torrent Download And Magnet Download For your PC And Mobiles. Latest Movie Fifty.Shades.of.Grey.2015.UNR Download Link In Bottom.

Torrent And Magnet Links Below

Quote:

Video

ID : 1

Format : HEVC

Format/Info : High Efficiency Video Coding

Format profile : Main [email protected]@High

HDR format : SMPTE ST 2086, HDR10 compatible

Codec ID : V_MPEGH/ISO/HEVC

Duration : 2 h 8 min

Bit rate : 3 244 kb/s

Width : 3 840 pixels

Height : 1 600 pixels

Display aspect ratio : 2.40:1

Frame rate mode : Constant

Frame rate : 23.976 (24000/1001) FPS

Color space : YUV

Chroma subsampling : 4:2:0 (Type 2)

Bit depth : 10 bits

Bits/(Pixel*Frame) : 0.022

Stream size : 2.91 GiB (35%)

Writing library : x265 3.1+11-de920e0a3183:[Windows][GCC 6.3.0][64 bit] 10bit

Encoding settings : cpuid=1176575 / frame-threads=5 / numa-pools=36 / wpp / no-pmode / no-pme / no-psnr / no-ssim / log-level=2 / input-csp=1 / input-res=3840×1600 / interlace=0 / total-frames=184880 / level-idc=51 / high-tier=1 / uhd-bd=0 / ref=4 / no-allow-non-conformance / repeat-headers / annexb / aud / hrd / info / hash=0 / no-temporal-layers / no-open-gop / min-keyint=1 / keyint=24 / gop-lookahead=0 / bframes=4 / b-adapt=2 / b-pyramid / bframe-bias=0 / rc-lookahead=25 / lookahead-slices=4 / scenecut=40 / radl=0 / no-splice / no-intra-refresh / ctu=64 / min-cu-size=8 / rect / no-amp / max-tu-size=32 / tu-inter-depth=1 / tu-intra-depth=1 / limit-tu=0 / rdoq-level=2 / dynamic-rd=0.00 / no-ssim-rd / signhide / no-tskip / nr-intra=0 / nr-inter=0 / no-constrained-intra / no-strong-intra-smoothing / max-merge=3 / limit-refs=3 / limit-modes / me=3 / subme=3 / merange=57 / temporal-mvp / no-hme / weightp / no-weightb / no-analyze-src-pics / deblock=-3:-3 / no-sao / no-sao-non-deblock / rd=4 / no-early-skip / rskip / no-fast-intra / no-tskip-fast / no-cu-lossless / no-b-intra / no-splitrd-skip / rdpenalty=0 / psy-rd=2.00 / psy-rdoq=1.00 / no-rd-refine / no-lossless / cbqpoffs=0 / crqpoffs=0 / rc=crf / crf=17.0 / qcomp=0.60 / qpstep=4 / stats-write=0 / stats-read=0 / vbv-maxrate=160000 / vbv-bufsize=160000 / vbv-init=0.9 / crf-max=0.0 / crf-min=0.0 / ipratio=1.40 / pbratio=1.30 / aq-mode=2 / aq-strength=1.00 / cutree / zone-count=0 / no-strict-cbr / qg-size=32 / no-rc-grain / qpmax=69 / qpmin=0 / no-const-vbv / sar=1 / overscan=0 / videoformat=5 / range=0 / colorprim=9 / transfer=16 / colormatrix=9 / chromaloc=1 / chromaloc-top=2 / chromaloc-bottom=2 / display-window=0 / master-display=G(13250,34500)B(7500,3000)R(34000,16000)WP(15635,16450)L(10000000,50)cll=1000,96 / min-luma=0 / max-luma=1023 / log2-max-poc-lsb=8 / vui-timing-info / vui-hrd-info / slices=1 / no-opt-qp-pps / no-opt-ref-list-length-pps / no-multi-pass-opt-rps / scenecut-bias=0.05 / no-opt-cu-delta-qp / no-aq-motion / hdr / hdr-opt / no-dhdr10-opt / no-idr-recovery-sei / analysis-reuse-level=5 / scale-factor=0 / refine-intra=0 / refine-inter=0 / refine-mv=0 / refine-ctu-distortion=0 / no-limit-sao / ctu-info=0 / no-lowpass-dct / refine-analysis-type=0 / copy-pic=1 / max-ausize-factor=1.0 / no-dynamic-refine / no-single-sei / no-hevc-aq / no-svt / no-field / qp-adaptation-range=1.00

Default : Yes

Forced : No

Color range : Limited

Color primaries : BT.2020

Transfer characteristics : PQ

Matrix coefficients : BT.2020 non-constant

Mastering display color primaries : Display P3

Mastering display luminance : min: 0.0050 cd/m2, max: 1000 cd/m2

Maximum Content Light Level : 1000 cd/m2

Maximum Frame-Average Light Level : 96 cd/m2

Audio

ID : 2

Format : DTS XLL X

Format/Info : Digital Theater Systems

Commercial name : DTS-HD Master Audio

Codec ID : A_DTS

Duration : 2 h 8 min

Bit rate mode : Variable

Bit rate : 5 956 kb/s

Channel(s) : 8 channels

Channel(s)_Original : Object Based

ChannelLayout_Original : Object Based

Sampling rate : 48.0 kHz

Frame rate : 93.750 FPS (512 SPF)

Bit depth : 24 bits

Stream size : 5.35 GiB (64%)

Language : English

Default : Yes

Forced : No

Text #1

ID : 3

Format : PGS

Muxing mode : zlib

Codec ID : S_HDMV/PGS

Codec ID/Info : Picture based subtitle format used on BDs/HD-DVDs

Duration : 1 h 59 min

Bit rate : 32.0 kb/s

Count of elements : 3272

Stream size : 27.4 MiB (0%)

Title : English SDH

Language : English

Default : No

Forced : No

Text #2

ID : 4

Format : PGS

Muxing mode : zlib

Codec ID : S_HDMV/PGS

Codec ID/Info : Picture based subtitle format used on BDs/HD-DVDs

Duration : 1 h 59 min

Bit rate : 27.5 kb/s

Count of elements : 2782

Stream size : 23.5 MiB (0%)

Title : French

Language : French

Default : No

Forced : No

Text #3

ID : 5

Format : PGS

Muxing mode : zlib

Codec ID : S_HDMV/PGS

Codec ID/Info : Picture based subtitle format used on BDs/HD-DVDs

Duration : 1 h 58 min

Bit rate : 26.1 kb/s

Count of elements : 2762

Stream size : 22.1 MiB (0%)

Title : Spanish

Language : Spanish

Default : No

Forced : No

Text #4

ID : 6

Format : PGS

Muxing mode : zlib

Codec ID : S_HDMV/PGS

Codec ID/Info : Picture based subtitle format used on BDs/HD-DVDs

Duration : 1 h 58 min

Bit rate : 16.7 kb/s

Count of elements : 2439

Stream size : 14.2 MiB (0%)

Title : Japanese

Language : Japanese

Default : No

Forced : No

Text #5

ID : 7

Format : PGS

Muxing mode : zlib

Codec ID : S_HDMV/PGS

Codec ID/Info : Picture based subtitle format used on BDs/HD-DVDs

Duration : 2 h 7 min

Bit rate : 22.7 kb/s

Count of elements : 2790

Stream size : 20.7 MiB (0%)

Title : Portuguese

Language : Portuguese

Default : No

Forced : No

Text #6

ID : 8

Format : PGS

Muxing mode : zlib

Codec ID : S_HDMV/PGS

Codec ID/Info : Picture based subtitle format used on BDs/HD-DVDs

Duration : 1 h 59 min

Bit rate : 3 761 b/s

Count of elements : 298

Stream size : 3.21 MiB (0%)

Title : French

Language : French

Default : No

Forced : No

Text #7

ID : 9

Format : PGS

Muxing mode : zlib

Codec ID : S_HDMV/PGS

Codec ID/Info : Picture based subtitle format used on BDs/HD-DVDs

Duration : 1 h 58 min

Bit rate : 971 b/s

Count of elements : 86

Stream size : 844 KiB (0%)

Title : Spanish

Language : Spanish

Default : No

Forced : No

Text #8

ID : 10

Format : PGS

Muxing mode : zlib

Codec ID : S_HDMV/PGS

Codec ID/Info : Picture based subtitle format used on BDs/HD-DVDs

Duration : 1 h 58 min

Bit rate : 413 b/s

Count of elements : 68

Stream size : 360 KiB (0%)

Title : Japanese

Language : Japanese

Default : No

Forced : No

Text #9

ID : 11

Format : PGS

Muxing mode : zlib

Codec ID : S_HDMV/PGS

Codec ID/Info : Picture based subtitle format used on BDs/HD-DVDs

Duration : 2 h 7 min

Bit rate : 504 b/s

Count of elements : 60

Stream size : 471 KiB (0%)

Title : Portuguese

Language : Portuguese

Default : No

Forced : No

Fifty.Shades.of.Grey.2015.UNRDownload Torrent Magnet

#FiftyShadesofGrey2015UNR