Fifty Shades of Grey (2015) 1 Full Torrent Magnet Download

Download Torrent Fifty Shades of Grey (2015) 1 Movie Full in HD Result. Movie Fifty Shades of Grey (2015) 1 Torrent Download full. Movie Fifty Shades of Grey (2015) 1 torrent Magnet Download Full. Fifty Shades of Grey (2015) 1 Full Movie Torrent Download And Magnet Download For your PC And Mobiles. Latest Movie Fifty Shades of Grey (2015) 1 Download Link In Bottom.

Torrent And Magnet Links Below

Fifty Shades of Grey (2015) 1080p Theatrical BluRay x264 {Dual Audio} {Hindi-Eng DD 5.1} Exclusive By~Hammer~



General

Format                                   : Matroska

Format version                           : Version 4

File size                                : 5.49 GiB

Duration                                 : 2 h 5 min

Overall bit rate                         : 6 276 kb/s

Movie name                               : Fifty Shades of Grey (2015) 1080p Theatrical BluRay x264 {Hindi DD 5.1-Eng BD 5.1} MSub By~Hammer~

Bit rate                                 : 5 000 kb/s

Width                                    : 1 920 pixels

Height                                   : 800 pixels

Display aspect ratio                     : 2.40:1

Frame rate mode                          : Constant

Frame rate                               : 23.976 (24000/1001) FPS

Title                                    : ~EncodeR~HammeR~

Language                                 : English

Default                                  : Yes

Forced                                   : Yes

Audio #1

Format                                   : AC-3

Format/Info                              : Audio Coding 3

Commercial name                          : Dolby Digital

Codec ID                                 : A_AC3

Duration                                 : 2 h 5 min

Bit rate mode                            : Constant

Bit rate                                 : 640 kb/s

Channel(s)                               : 6 channels

Channel layout                           : L R C LFE Ls Rs

Sampling rate                            : 48.0 kHz

Frame rate                               : 31.250 FPS (1536 SPF)

Compression mode                         : Lossy

Stream size                              : 573 MiB (10%)

Title                                    : Hindi Org DD 5.1 640 kbps By~Hammer~

Language                                 : Hindi

Default                                  : Yes

Forced                                   : Yes

Audio #2

Format                                   : AC-3

Format/Info                              : Audio Coding 3

Commercial name                          : Dolby Digital

Codec ID                                 : A_AC3

Duration                                 : 2 h 5 min

Bit rate mode                            : Constant

Bit rate                                 : 640 kb/s

Channel(s)                               : 6 channels

Channel layout                           : L R C LFE Ls Rs

Sampling rate                            : 48.0 kHz

Frame rate                               : 31.250 FPS (1536 SPF)

Compression mode                         : Lossy

Stream size                              : 573 MiB (10%)

Title                                    : English BD 5.1 640 kbps By~Hammer~

Language                                 : English

Default                                  : No

Forced                                   : No

Text #1

Format                                   : UTF-8

Codec ID                                 : S_TEXT/UTF8

Codec ID/Info                            : UTF-8 Plain Text

Duration                                 : 2 h 3 min

Bit rate                                 : 6 b/s

Count of elements                        : 68

Stream size                              : 5.56 KiB (0%)

Title                                    : Hindi Forced Subtitle

Language                                 : Hindi

Default                                  : Yes

Forced                                   : No

Text #2

Format                                   : UTF-8

Codec ID                                 : S_TEXT/UTF8

Codec ID/Info                            : UTF-8 Plain Text

Duration                                 : 1 h 56 min

Bit rate                                 : 108 b/s

Count of elements                        : 1391

Stream size                              : 92.3 KiB (0%)

Title                                    : Hindi Full Subtitle

Language                                 : Hindi

Default                                  : No

Forced                                   : No

Text #3

Format                                   : UTF-8

Codec ID                                 : S_TEXT/UTF8

Codec ID/Info                            : UTF-8 Plain Text

Duration                                 : 2 h 4 min

Bit rate                                 : 64 b/s

Count of elements                        : 1660

Stream size                              : 59.0 KiB (0%)

Title                                    : English Full Subtitle

Language                                 : English

Default                                  : No

Forced                                   : No














Fifty Shades of Grey (2015) 1Download Torrent Magnet

#Fifty #Shades #Grey