Feu Adrien Muset (1992) TVrip Full Torrent Magnet Download

Download Torrent Feu Adrien Muset (1992) TVrip Movie Full in HD Result. Movie Feu Adrien Muset (1992) TVrip Torrent Download full. Movie Feu Adrien Muset (1992) TVrip torrent Magnet Download Full. Feu Adrien Muset (1992) TVrip Full Movie Torrent Download And Magnet Download For your PC And Mobiles. Latest Movie Feu Adrien Muset (1992) TVrip Download Link In Bottom.

Torrent And Magnet Links Below

IMDB

Code:


General

Complete name : Feu.Adrien.Muset.(1992).TVrip.(704x576p).AC3.[Borsalino].mkv

Format : Matroska

Format version : Version 4

File size : 2.18 GiB

Duration : 1 h 30 min

Overall bit rate mode : Variable

Overall bit rate : 3 434 kb/s

Movie name : Feu.Adrien.Muset.(1992).TVrip.(704x576p).AC3.[Borsalino]
Encoded date : UTC 2021-06-05 17:03:25

Writing application : mkvmerge v56.1.0 (‘My Friend’) 64-bit

Writing library : libebml v1.4.2 + libmatroska v1.6.4

Video

ID : 1

Format : AVC

Format/Info : Advanced Video Codec

Format profile : [email protected]
Format settings : CABAC / 3 Ref Frames

Format settings, CABAC : Yes

Format settings, Reference frames : 3 frames

Codec ID : V_MPEG4/ISO/AVC

Duration : 1 h 30 min

Bit rate mode : Variable

Bit rate : 3 272 kb/s

Maximum bit rate : 9 800 kb/s

Width : 704 pixels

Height : 576 pixels

Display aspect ratio : 4:3

Original display aspect ratio : 4:3

Frame rate mode : Constant

Frame rate : 25.000 FPS

Standard : PAL

Color space : YUV

Chroma subsampling : 4:2:0

Bit depth : 8 bits

Scan type : Interlaced

Scan type, store method : Separated fields

Scan order : Top Field First

Bits/(Pixel*Frame) : 0.323

Stream size : 2.07 GiB (95%)

Title : French

Language : French

Default : Yes

Forced : No

Color range : Limited

Audio

ID : 2

Format : AC-3

Format/Info : Audio Coding 3

Commercial name : Dolby Digital

Codec ID : A_AC3

Duration : 1 h 30 min

Bit rate mode : Constant

Bit rate : 160 kb/s

Channel(s) : 2 channels

Channel layout : L R

Sampling rate : 48.0 kHz

Frame rate : 31.250 FPS (1536 SPF)

Compression mode : Lossy

Delay relative to video : 16 ms

Stream size : 104 MiB (5%)

Title : French

Language : French

Service kind : Complete Main

Default : Yes

Forced : No

Spoken language

Subtitles (srt files)

None







Feu Adrien Muset (1992) TVripDownload Torrent Magnet

#Feu #Adrien #Muset #TVrip