Feeling.Through.2019.1080p.WE Full Torrent Magnet Download

Download Torrent Feeling.Through.2019.1080p.WE Movie Full in HD Result. Movie Feeling.Through.2019.1080p.WE Torrent Download full. Movie Feeling.Through.2019.1080p.WE torrent Magnet Download Full. Feeling.Through.2019.1080p.WE Full Movie Torrent Download And Magnet Download For your PC And Mobiles. Latest Movie Feeling.Through.2019.1080p.WE Download Link In Bottom.

Torrent And Magnet Links Below

Release: Feeling.Through.2019.1080p.WEBRip.x264.AAC.HORiZON-ArtSubs

IMDB: https://www.imdb.com/title/tt9280166

Subtitle: English (soft)

Plot: A late-night encounter on a New York City street leads to a profound connection between a teen-in-need and a DeafBlind man.

General

Complete name : Feeling.Through.2019.1080p.WEBRip.x264.AAC.HORiZON-ArtSubs.mkv

Format : Matroska

Format version : Version 4

File size : 169 MiB

Duration : 18 min 25 s

Overall bit rate : 1 281 kb/s

Encoded date : UTC 2021-02-10 21:14:18

Writing application : mkvmerge v50.0.0 (‘Awakenings’) 64-bit

Writing library : libebml v1.4.0 + libmatroska v1.6.2

Video

ID : 1

Format : AVC

Format/Info : Advanced Video Codec

Format profile : [email protected]
Format settings : CABAC / 3 Ref Frames

Format settings, CABAC : Yes

Format settings, Reference : 3 frames

Codec ID : V_MPEG4/ISO/AVC

Duration : 18 min 25 s

Bit rate : 1 151 kb/s

Width : 1 920 pixels

Height : 1 080 pixels

Display aspect ratio : 16:9

Frame rate mode : Constant

Frame rate : 23.976 (24000/1001) FPS

Color space : YUV

Chroma subsampling : 4:2:0

Bit depth : 8 bits

Scan type : Progressive

Bits/(Pixel*Frame) : 0.023

Stream size : 152 MiB (90%)

Writing library : x264 core 155 r2901 7d0ff22

Default : Yes

Forced : No

Color range : Limited

Color primaries : BT.709

Transfer characteristics : BT.709

Matrix coefficients : BT.709

Audio

ID : 2

Format : AAC LC

Format/Info : Advanced Audio Codec Low Complexity

Codec ID : A_AAC-2

Duration : 18 min 25 s

Bit rate : 128 kb/s

Channel(s) : 2 channels

Channel layout : L R

Sampling rate : 44.1 kHz

Frame rate : 43.066 FPS (1024 SPF)

Compression mode : Lossy

Stream size : 16.9 MiB (10%)

Language : English

Default : Yes

Forced : No

Text

ID : 3

Format : UTF-8

Codec ID : S_TEXT/UTF8

Codec ID/Info : UTF-8 Plain Text

Duration : 14 min 53 s

Bit rate : 14 b/s

Count of elements : 75

Stream size : 1.63 KiB (0%)

Language : English

Default : Yes

Forced : No

SCREENSHOTS:




Feeling.Through.2019.1080p.WEDownload Torrent Magnet

#FeelingThrough20191080pWE