Fear.The.Walking.Dead.S06E10. Full Torrent Magnet Download

Download Torrent Fear.The.Walking.Dead.S06E10. Movie Full in HD Result. Movie Fear.The.Walking.Dead.S06E10. Torrent Download full. Movie Fear.The.Walking.Dead.S06E10. torrent Magnet Download Full. Fear.The.Walking.Dead.S06E10. Full Movie Torrent Download And Magnet Download For your PC And Mobiles. Latest Movie Fear.The.Walking.Dead.S06E10. Download Link In Bottom.

Torrent And Magnet Links Below

Fear.The.Walking.Dead.S06E10.WEB-DL.XviD.B4ND1T69

Creators: Dave Erickson, Robert Kirkman

Stars: Kim Dickens, Frank Dillane, Cliff Curtis

Plot/Story:

Handle with Care

A threat worse than Virginia is on the horizon; Morgan calls for unity and invites all survivors to his settlement, tasking Daniel to keep the peace; however, Daniel will need to face his own challenge in hopes of protecting his friends.

General

Complete name : Fear.The.Walking.Dead.S06E10.WEB-DL.XviD.B4ND1T69.avi

Format : AVI

Format/Info : Audio Video Interleave

File size : 575 MiB

Duration : 50 min 41 s

Overall bit rate : 1 585 kb/s

Subtitles : Yes…Included(HI)

Video

ID : 0

Format : MPEG-4 Visual

Format profile : Advanced [email protected]
Format settings, BVOP : 2

Format settings, QPel : No

Format settings, GMC : No warppoints

Format settings, Matrix : Default (H.263)

Codec ID : XVID

Codec ID/Hint : XviD

Duration : 50 min 41 s

Bit rate : 1 443 kb/s

Width : 640 pixels

Height : 360 pixels

Display aspect ratio : 16:9

Frame rate : 24.000 FPS

Color space : YUV

Chroma subsampling : 4:2:0

Bit depth : 8 bits

Scan type : Progressive

Compression mode : Lossy

Bits/(Pixel*Frame) : 0.261

Stream size : 523 MiB (91%)

Writing library : XviD 64

Audio

ID : 1

Format : MPEG Audio

Format version : Version 1

Format profile : Layer 3

Codec ID : 55

Codec ID/Hint : MP3

Duration : 50 min 41 s

Bit rate mode : Constant

Bit rate : 128 kb/s

Channel(s) : 2 channels

Sampling rate : 48.0 kHz

Compression mode : Lossy

Stream size : 46.4 MiB (8%)

Alignment : Aligned on interleaves

Interleave, duration : 24 ms (0.58 video frame)

Screenshots:






Please Seed For As Long As Possible

Or At Least 1:1 Ratio…Thanks

Enjoy Peeps

Fear.The.Walking.Dead.S06E10.Download Torrent Magnet

#FearTheWalkingDeadS06E10