Fast and Furious.2001-2019 72 Full Torrent Magnet Download

Download Torrent Fast and Furious.2001-2019 72 Movie Full in HD Result. Movie Fast and Furious.2001-2019 72 Torrent Download full. Movie Fast and Furious.2001-2019 72 torrent Magnet Download Full. Fast and Furious.2001-2019 72 Full Movie Torrent Download And Magnet Download For your PC And Mobiles. Latest Movie Fast and Furious.2001-2019 72 Download Link In Bottom.

Torrent And Magnet Links Below

Quote:

*****************************************************************

1.Fast and Furious 1 .2001.720pBluRay.x264. Hindi English .LLG

*******************SCREENSHOTS(Click to enlarge)*******************

*******************************MEDIAINFO****************************

Fast and Furious 1 .2001.720pBluRay.x264. Hindi English .LLG.mp4

Format : MPEG-4

Format profile : Base Media

Codec ID : isom (isom/iso2/avc1/mp41)

File size : 1.40 GiB

Duration : 1 h 46 min

Overall bit rate mode : Variable

Overall bit rate : 1 875 kb/s

Writing application : Lavf58.29.100

Video

ID : 1

Format : AVC

Format/Info : Advanced Video Codec

Format profile : [email protected]
Format settings : CABAC / 1 Ref Frames

Format settings, CABAC : Yes

Format settings, Reference frames : 1 frame

Codec ID : avc1

Codec ID/Info : Advanced Video Coding

Duration : 1 h 46 min

Bit rate mode : Variable

Bit rate : 1 183 kb/s

Maximum bit rate : 1 200 kb/s

Width : 1 280 pixels

Height : 544 pixels

Display aspect ratio : 2.35:1

Frame rate mode : Constant

Frame rate : 23.976 (23976/1000) FPS

Color space : YUV

Chroma subsampling : 4:2:0

Bit depth : 8 bits

Scan type : Progressive

Bits/(Pixel*Frame) : 0.071

Stream size : 904 MiB (63%)

Audio #1

ID : 2

Format : AAC LC

Codec ID : mp4a-40-2

Duration : 1 h 46 min

Bit rate mode : Constant

Bit rate : 342 kb/s

Channel(s) : 6 channels

Channel layout : C L R Ls Rs LFE

Sampling rate : 44.1 kHz

Frame rate : 43.066 FPS (1024 SPF)

Compression mode : Lossy

Stream size : 261 MiB (18%)

Language : Hindi

Default : Yes

Alternate group : 1

Audio #2

ID : 3

Format : AAC LC

Codec ID : mp4a-40-2

Duration : 1 h 46 min

Bit rate mode : Constant

Bit rate : 341 kb/s

Channel(s) : 6 channels

Channel layout : C L R Ls Rs LFE

Sampling rate : 44.1 kHz

Frame rate : 43.066 FPS (1024 SPF)

Compression mode : Lossy

Stream size : 261 MiB (18%)

Language : English

Default : No

Alternate group : 1

********************************************************

2.Fast and Furious 2 .2003.720p.BluRay.x264.Hindi.English.LLG

*******************SCREENSHOTS(Click to enlarge)*******************

*******************************MEDIAINFO****************************

Fast and Furious 2 .2003.720p.BluRay.x264.Hindi.English.LLG.mp4

Format : MPEG-4

Format profile : Base Media

Codec ID : isom (isom/iso2/avc1/mp41)

File size : 1.41 GiB

Duration : 1 h 47 min

Overall bit rate mode : Variable

Overall bit rate : 1 879 kb/s

Video

ID : 1

Format : AVC

Format/Info : Advanced Video Codec

Format profile : [email protected]
Format settings : CABAC / 1 Ref Frames

Format settings, CABAC : Yes

Format settings, Reference frames : 1 frame

Codec ID : avc1

Codec ID/Info : Advanced Video Coding

Duration : 1 h 47 min

Bit rate mode : Variable

Bit rate : 1 186 kb/s

Maximum bit rate : 1 200 kb/s

Width : 1 280 pixels

Height : 544 pixels

Display aspect ratio : 2.35:1

Frame rate mode : Constant

Frame rate : 23.976 (23976/1000) FPS

Color space : YUV

Chroma subsampling : 4:2:0

Bit depth : 8 bits

Scan type : Progressive

Bits/(Pixel*Frame) : 0.071

Stream size : 913 MiB (63%)

Audio #1

ID : 2

Format : AAC LC

Codec ID : mp4a-40-2

Duration : 1 h 47 min

Bit rate mode : Constant

Bit rate : 343 kb/s

Channel(s) : 6 channels

Channel layout : C L R Ls Rs LFE

Sampling rate : 44.1 kHz

Frame rate : 43.066 FPS (1024 SPF)

Compression mode : Lossy

Stream size : 264 MiB (18%)

Language : Hindi

Default : Yes

Alternate group : 1

Audio #2

ID : 3

Format : AAC LC

Codec ID : mp4a-40-2

Duration : 1 h 47 min

Bit rate mode : Constant

Bit rate : 341 kb/s

Channel(s) : 6 channels

Channel layout : C L R Ls Rs LFE

Sampling rate : 44.1 kHz

Frame rate : 43.066 FPS (1024 SPF)

Compression mode : Lossy

Language : English

Default : No

Alternate group : 1

********************************************************

3.Fast and Furious 2 .2003.720p.BluRay.x264.Hindi.English.LLG

*******************SCREENSHOTS(Click to enlarge)*******************

*******************************MEDIAINFO****************************

Fast and Furious 3 .2006.720p.BluRay.x264.Hindi.English.LLG.mp4

Format : MPEG-4

Format profile : Base Media

Codec ID : isom (isom/iso2/avc1/mp41)

File size : 1.36 GiB

Duration : 1 h 44 min

Overall bit rate mode : Variable

Overall bit rate : 1 864 kb/s

Video

ID : 1

Format : AVC

Format/Info : Advanced Video Codec

Format profile : [email protected]
Format settings : CABAC / 1 Ref Frames

Format settings, CABAC : Yes

Format settings, Reference frames : 1 frame

Codec ID : avc1

Codec ID/Info : Advanced Video Coding

Duration : 1 h 44 min

Bit rate mode : Variable

Bit rate : 1 183 kb/s

Maximum bit rate : 1 200 kb/s

Width : 1 280 pixels

Height : 544 pixels

Display aspect ratio : 2.35:1

Frame rate mode : Constant

Frame rate : 23.976 (23976/1000) FPS

Color space : YUV

Chroma subsampling : 4:2:0

Bit depth : 8 bits

Scan type : Progressive

Bits/(Pixel*Frame) : 0.071

Stream size : 882 MiB (63%)

Audio #1

ID : 2

Format : AAC LC

Codec ID : mp4a-40-2

Duration : 1 h 44 min

Bit rate mode : Variable

Bit rate : 341 kb/s

Channel(s) : 6 channels

Channel layout : C L R Ls Rs LFE

Sampling rate : 44.1 kHz

Frame rate : 43.066 FPS (1024 SPF)

Compression mode : Lossy

Stream size : 252 MiB (18%)

Language : Hindi

Default : Yes

Alternate group : 1

Audio #2

ID : 3

Format : AAC LC

Codec ID : mp4a-40-2

Duration : 1 h 44 min

Bit rate mode : Variable

Bit rate : 334 kb/s

Maximum bit rate : 341 kb/s

Channel(s) : 6 channels

Channel layout : C L R Ls Rs LFE

Sampling rate : 44.1 kHz

Frame rate : 43.066 FPS (1024 SPF)

Compression mode : Lossy

Stream size : 249 MiB (18%)

Language : English

Default : No

Alternate group : 1

********************************************************

4.Fast and Furious 4 .2009.720P.BluRay.x264.Hindi.English.LLG

*******************SCREENSHOTS(Click to enlarge)*******************

*******************************MEDIAINFO****************************

Fast and Furious 4 .2009.720P.BluRay.x264.Hindi.English.LLG.mp4

Format : MPEG-4

Format profile : Base Media

Codec ID : isom (isom/iso2/avc1/mp41)

File size : 1.38 GiB

Duration : 1 h 46 min

Overall bit rate mode : Variable

Overall bit rate : 1 849 kb/s

Video

ID : 1

Format : AVC

Format/Info : Advanced Video Codec

Format profile : [email protected]
Format settings : CABAC / 1 Ref Frames

Format settings, CABAC : Yes

Format settings, Reference frames : 1 frame

Codec ID : avc1

Codec ID/Info : Advanced Video Coding

Duration : 1 h 46 min

Bit rate mode : Variable

Bit rate : 1 162 kb/s

Maximum bit rate : 1 200 kb/s

Width : 1 280 pixels

Height : 534 pixels

Display aspect ratio : 2.40:1

Frame rate mode : Constant

Frame rate : 23.976 (23976/1000) FPS

Color space : YUV

Chroma subsampling : 4:2:0

Bit depth : 8 bits

Scan type : Progressive

Bits/(Pixel*Frame) : 0.071

Stream size : 887 MiB (63%)

Audio #1

ID : 2

Format : AAC LC

Codec ID : mp4a-40-2

Duration : 1 h 46 min

Bit rate mode : Constant

Bit rate : 341 kb/s

Channel(s) : 6 channels

Channel layout : C L R Ls Rs LFE

Sampling rate : 44.1 kHz

Frame rate : 43.066 FPS (1024 SPF)

Compression mode : Lossy

Stream size : 261 MiB (18%)

Language : Hindi

Default : Yes

Alternate group : 1

Audio #2

ID : 3

Format : AAC LC

Codec ID : mp4a-40-2

Duration : 1 h 46 min

Bit rate mode : Variable

Bit rate : 341 kb/s

Channel(s) : 6 channels

Channel layout : C L R Ls Rs LFE

Sampling rate : 44.1 kHz

Frame rate : 43.066 FPS (1024 SPF)

Compression mode : Lossy

Stream size : 258 MiB (18%)

Language : English

Default : No

Alternate group : 1

********************************************************

5.Fast and Furious 5 .2011.720p.BluRay.x264.Hindi.English.LLG

*******************SCREENSHOTS(Click to enlarge)*******************

*******************************MEDIAINFO****************************

Fast and Furious 5 .2011.720p.BluRay.x264.Hindi.English.LLG.mp4

Format : MPEG-4

Format profile : Base Media

Codec ID : isom (isom/iso2/avc1/mp41)

File size : 1.69 GiB

Duration : 2 h 10 min

Overall bit rate mode : Variable

Overall bit rate : 1 853 kb/s

Video

ID : 1

Format : AVC

Format/Info : Advanced Video Codec

Format profile : [email protected]
Format settings : CABAC / 1 Ref Frames

Format settings, CABAC : Yes

Format settings, Reference frames : 1 frame

Codec ID : avc1

Codec ID/Info : Advanced Video Coding

Duration : 2 h 10 min

Bit rate mode : Variable

Bit rate : 1 165 kb/s

Maximum bit rate : 1 200 kb/s

Width : 1 280 pixels

Height : 544 pixels

Display aspect ratio : 2.35:1

Frame rate mode : Constant

Frame rate : 23.976 (23976/1000) FPS

Color space : YUV

Chroma subsampling : 4:2:0

Bit depth : 8 bits

Scan type : Progressive

Bits/(Pixel*Frame) : 0.070

Stream size : 1.06 GiB (63%)

Audio #1

ID : 2

Format : AAC LC

Codec ID : mp4a-40-2

Duration : 2 h 10 min

Bit rate mode : Constant

Bit rate : 340 kb/s

Channel(s) : 6 channels

Channel layout : C L R Ls Rs LFE

Sampling rate : 44.1 kHz

Frame rate : 43.066 FPS (1024 SPF)

Compression mode : Lossy

Language : Hindi

Default : Yes

Alternate group : 1

Audio #2

ID : 3

Format : AAC LC

Codec ID : mp4a-40-2

Duration : 2 h 10 min

Bit rate mode : Constant

Bit rate : 339 kb/s

Channel(s) : 6 channels

Channel layout : C L R Ls Rs LFE

Sampling rate : 44.1 kHz

Frame rate : 43.066 FPS (1024 SPF)

Compression mode : Lossy

Stream size : 316 MiB (18%)

Language : English

Default : No

Alternate group : 1

********************************************************

6.Fast and Furious 6. 2013 720p.BluRay.x264. Hindi.English.LLG

*******************SCREENSHOTS(Click to enlarge)*******************

*******************************MEDIAINFO****************************

Fast and Furious 6. 2013 720p.BluRay.x264. Hindi.English.LLG.mp4

Format : MPEG-4

Format profile : Base Media

Codec ID : isom (isom/iso2/avc1/mp41)

File size : 1.68 GiB

Duration : 2 h 10 min

Overall bit rate mode : Variable

Overall bit rate : 1 848 kb/s

Video

ID : 1

Format : AVC

Format/Info : Advanced Video Codec

Format profile : [email protected]
Format settings : CABAC / 1 Ref Frames

Format settings, CABAC : Yes

Format settings, Reference frames : 1 frame

Codec ID : avc1

Codec ID/Info : Advanced Video Coding

Duration : 2 h 10 min

Bit rate mode : Variable

Bit rate : 1 158 kb/s

Maximum bit rate : 1 200 kb/s

Width : 1 280 pixels

Height : 544 pixels

Display aspect ratio : 2.35:1

Frame rate mode : Constant

Frame rate : 23.976 (23976/1000) FPS

Color space : YUV

Chroma subsampling : 4:2:0

Bit depth : 8 bits

Scan type : Progressive

Bits/(Pixel*Frame) : 0.069

Stream size : 1.05 GiB (63%)

Audio #1

ID : 2

Format : AAC LC

Codec ID : mp4a-40-2

Duration : 2 h 10 min

Bit rate mode : Constant

Bit rate : 341 kb/s

Channel(s) : 6 channels

Channel layout : C L R Ls Rs LFE

Sampling rate : 44.1 kHz

Frame rate : 43.066 FPS (1024 SPF)

Compression mode : Lossy

Stream size : 318 MiB (18%)

Language : Hindi

Default : Yes

Alternate group : 1

Audio #2

ID : 3

Format : AAC LC

Codec ID : mp4a-40-2

Duration : 2 h 10 min

Bit rate mode : Variable

Bit rate : 341 kb/s

Channel(s) : 6 channels

Channel layout : C L R Ls Rs LFE

Sampling rate : 44.1 kHz

Frame rate : 43.066 FPS (1024 SPF)

Compression mode : Lossy

Stream size : 316 MiB (18%)

Language : English

Default : No

Alternate group : 1

********************************************************

7.Fast and Furious 7. 2015 720P.BluRay.x264. Hindi English.LLG.mp4

*******************SCREENSHOTS(Click to enlarge)*******************

*******************************MEDIAINFO****************************

Fast and Furious 7. 2015 720P.BluRay.x264. Hindi English.LLG.mp4

Format : MPEG-4

Format profile : Base Media

Codec ID : isom (isom/iso2/avc1/mp41)

File size : 1.79 GiB

Duration : 2 h 17 min

Overall bit rate mode : Variable

Overall bit rate : 1 865 kb/s

Video

ID : 1

Format : AVC

Format/Info : Advanced Video Codec

Format profile : [email protected]
Format settings : CABAC / 1 Ref Frames

Format settings, CABAC : Yes

Format settings, Reference frames : 1 frame

Codec ID : avc1

Codec ID/Info : Advanced Video Coding

Duration : 2 h 17 min

Bit rate mode : Variable

Bit rate : 1 178 kb/s

Maximum bit rate : 1 200 kb/s

Width : 1 280 pixels

Height : 534 pixels

Display aspect ratio : 2.40:1

Frame rate mode : Constant

Frame rate : 23.976 (23976/1000) FPS

Color space : YUV

Chroma subsampling : 4:2:0

Bit depth : 8 bits

Scan type : Progressive

Bits/(Pixel*Frame) : 0.072

Stream size : 1.13 GiB (63%)

Audio #1

ID : 2

Format : AAC LC

Codec ID : mp4a-40-2

Duration : 2 h 17 min

Bit rate mode : Constant

Bit rate : 340 kb/s

Channel(s) : 6 channels

Channel layout : C L R Ls Rs LFE

Sampling rate : 44.1 kHz

Frame rate : 43.066 FPS (1024 SPF)

Compression mode : Lossy

Stream size : 334 MiB (18%)

Audio #2

ID : 3

Format : AAC LC

Codec ID : mp4a-40-2

Duration : 2 h 17 min

Bit rate mode : Variable

Bit rate : 341 kb/s

Channel(s) : 6 channels

Channel layout : C L R Ls Rs LFE

Sampling rate : 44.1 kHz

Frame rate : 43.066 FPS (1024 SPF)

Compression mode : Lossy

Stream size : 332 MiB (18%)

Language : English

Default : No

Alternate group : 1

********************************************************

8.Fast and Furious 8 .2017.720p.BluRay.x264.Hindi.English.LLG

*******************SCREENSHOTS(Click to enlarge)*******************

*******************************MEDIAINFO****************************

Fast and Furious 8 .2017.720p.BluRay.x264.Hindi.English.LLG.mp4

Format : MPEG-4

Format profile : Base Media

Codec ID : isom (isom/iso2/avc1/mp41)

File size : 1.44 GiB

Duration : 2 h 15 min

Overall bit rate mode : Variable

Overall bit rate : 1 519 kb/s

Video

ID : 1

Format : AVC

Format/Info : Advanced Video Codec

Format profile : [email protected]
Format settings : CABAC / 1 Ref Frames

Format settings, CABAC : Yes

Format settings, Reference frames : 1 frame

Codec ID : avc1

Codec ID/Info : Advanced Video Coding

Duration : 2 h 15 min

Bit rate mode : Variable

Bit rate : 1 172 kb/s

Maximum bit rate : 1 200 kb/s

Width : 1 280 pixels

Height : 536 pixels

Display aspect ratio : 2.40:1

Frame rate mode : Constant

Frame rate : 23.976 (23976/1000) FPS

Color space : YUV

Chroma subsampling : 4:2:0

Bit depth : 8 bits

Scan type : Progressive

Bits/(Pixel*Frame) : 0.071

Stream size : 1.11 GiB (77%)

Audio

ID : 2

Format : AAC LC

Codec ID : mp4a-40-2

Duration : 2 h 15 min

Bit rate mode : Constant

Bit rate : 341 kb/s

Channel(s) : 6 channels

Channel layout : C L R Ls Rs LFE

Sampling rate : 44.1 kHz

Frame rate : 43.066 FPS (1024 SPF)

Compression mode : Lossy

Stream size : 332 MiB (22%)

Language : Hindi

Default : Yes

Alternate group : 1

********************************************************

9.Fast and Furious Presents Hobbs and Shaw 2019.720p.BluRay.Hindi.English.x264.AAC.5.1.LLG

*******************SCREENSHOTS(Click to enlarge)*******************

*******************************MEDIAINFO****************************

Fast and Furious Presents Hobbs and Shaw 2019.720p.BluRay.Hindi.English.x264.AAC.5.1.LLG.mp4

Format : MPEG-4

Format profile : Base Media

Codec ID : isom (isom/iso2/avc1/mp41)

File size : 1.79 GiB

Duration : 2 h 16 min

Overall bit rate mode : Variable

Overall bit rate : 1 871 kb/s

Video

ID : 1

Format : AVC

Format/Info : Advanced Video Codec

Format profile : [email protected]
Format settings : CABAC / 1 Ref Frames

Format settings, CABAC : Yes

Format settings, Reference frames : 1 frame

Codec ID : avc1

Codec ID/Info : Advanced Video Coding

Duration : 2 h 16 min

Bit rate mode : Variable

Bit rate : 1 180 kb/s

Maximum bit rate : 1 200 kb/s

Width : 1 280 pixels

Height : 536 pixels

Display aspect ratio : 2.40:1

Frame rate mode : Constant

Frame rate : 23.976 (23976/1000) FPS

Color space : YUV

Chroma subsampling : 4:2:0

Bit depth : 8 bits

Scan type : Progressive

Bits/(Pixel*Frame) : 0.072

Stream size : 1.13 GiB (63%)

Language : Hindi

Audio #1

ID : 2

Format : AAC LC

Codec ID : mp4a-40-2

Duration : 2 h 16 min

Bit rate mode : Constant

Bit rate : 341 kb/s

Channel(s) : 6 channels

Channel layout : C L R Ls Rs LFE

Sampling rate : 44.1 kHz

Frame rate : 43.066 FPS (1024 SPF)

Compression mode : Lossy

Stream size : 333 MiB (18%)

Language : Hindi

Default : Yes

Alternate group : 1

Audio #2

ID : 3

Format : AAC LC

Codec ID : mp4a-40-2

Duration : 2 h 16 min

Bit rate mode : Constant

Bit rate : 341 kb/s

Channel(s) : 6 channels

Channel layout : C L R Ls Rs LFE

Sampling rate : 44.1 kHz

Frame rate : 43.066 FPS (1024 SPF)

Compression mode : Lossy

Stream size : 334 MiB (18%)

Language : English

Default : No

Alternate group : 1

********************************************************

Fast and Furious.2001-2019 72Download Torrent Magnet

#Fast #Furious20012019