Fantomas Trilogy 1080p BluRay Full Torrent Magnet Download

Download Torrent Fantomas Trilogy 1080p BluRay Movie Full in HD Result. Movie Fantomas Trilogy 1080p BluRay Torrent Download full. Movie Fantomas Trilogy 1080p BluRay torrent Magnet Download Full. Fantomas Trilogy 1080p BluRay Full Movie Torrent Download And Magnet Download For your PC And Mobiles. Latest Movie Fantomas Trilogy 1080p BluRay Download Link In Bottom.

Torrent And Magnet Links Below

IMDB – Fantomas (1964)
IMDB – Fantomas se déchaîne (1965)
IMDB – Fantomas contre Scotland Yard (1967)

Code:


General

Complete name : Fantomas.(1964).1080p.BluRay.DTS.[Borsalino]Fantomas.(1964).1080p.BluRay.DTS.[Borsalino].DE.srt

Format : SubRip

File size : 67.0 KiB

Text

Format : SubRip

Compression mode : Lossless

General

Complete name : Fantomas.(1964).1080p.BluRay.DTS.[Borsalino]Fantomas.(1964).1080p.BluRay.DTS.[Borsalino].EL.srt

Format : SubRip

File size : 46.3 KiB

Text

Format : SubRip

Compression mode : Lossless

General

Complete name : Fantomas.(1964).1080p.BluRay.DTS.[Borsalino]Fantomas.(1964).1080p.BluRay.DTS.[Borsalino].EN.srt

Format : SubRip

File size : 43.7 KiB

Text

Format : SubRip

Compression mode : Lossless

General

Complete name : Fantomas.(1964).1080p.BluRay.DTS.[Borsalino]Fantomas.(1964).1080p.BluRay.DTS.[Borsalino].ES.srt

Format : SubRip

File size : 52.4 KiB

Text

Format : SubRip

Compression mode : Lossless

General

Complete name : Fantomas.(1964).1080p.BluRay.DTS.[Borsalino]Fantomas.(1964).1080p.BluRay.DTS.[Borsalino].FR.srt

Format : SubRip

File size : 62.7 KiB

Text

Format : SubRip

Compression mode : Lossless

General

Complete name : Fantomas.(1964).1080p.BluRay.DTS.[Borsalino]Fantomas.(1964).1080p.BluRay.DTS.[Borsalino].IT.srt

Format : SubRip

File size : 66.5 KiB

Text

Format : SubRip

Compression mode : Lossless

General

Complete name : Fantomas.(1964).1080p.BluRay.DTS.[Borsalino]Fantomas.(1964).1080p.BluRay.DTS.[Borsalino].NL.srt

Format : SubRip

File size : 45.3 KiB

Text

Format : SubRip

Compression mode : Lossless

General

Complete name : Fantomas.(1964).1080p.BluRay.DTS.[Borsalino]Fantomas.(1964).1080p.BluRay.DTS.[Borsalino].PT.srt

Format : SubRip

File size : 45.3 KiB

Text

Format : SubRip

Compression mode : Lossless

General

Complete name : Fantomas.(1964).1080p.BluRay.DTS.[Borsalino]Fantomas.(1964).1080p.BluRay.DTS.[Borsalino].RO.srt

Format : SubRip

File size : 57.9 KiB

Text

Format : SubRip

Compression mode : Lossless

General

Complete name : Fantomas.(1964).1080p.BluRay.DTS.[Borsalino]Fantomas.(1964).1080p.BluRay.DTS.[Borsalino].RU.srt

Format : SubRip

File size : 59.5 KiB

Text

Format : SubRip

Compression mode : Lossless

General

Complete name : Fantomas.(1964).1080p.BluRay.DTS.[Borsalino]Fantomas.(1964).1080p.BluRay.DTS.[Borsalino].mkv

Format : Matroska

Format version : Version 4

File size : 11.8 GiB

Duration : 1 h 44 min

Overall bit rate : 16.3 Mb/s

Movie name : Fantomas.(1964).1080p.BluRay.DTS.[Borsalino]
Writing application : mkvmerge v56.1.0 (‘My Friend’) 64-bit

Writing library : libebml v1.4.2 + libmatroska v1.6.4

Video

ID : 1

Format : AVC

Format/Info : Advanced Video Codec

Format profile : [email protected]
Format settings : CABAC / 5 Ref Frames

Format settings, CABAC : Yes

Format settings, Reference frames : 5 frames

Codec ID : V_MPEG4/ISO/AVC

Duration : 1 h 44 min

Bit rate : 15.5 Mb/s

Width : 1 920 pixels

Height : 818 pixels

Display aspect ratio : 2.35:1

Frame rate mode : Constant

Frame rate : 24.000 FPS

Color space : YUV

Chroma subsampling : 4:2:0

Bit depth : 8 bits

Scan type : Progressive

Bits/(Pixel*Frame) : 0.411

Stream size : 11.3 GiB (95%)

Title : French

Writing library : x264 core 105 r1732 2b04482

Encoding settings : cabac=1 / ref=5 / deblock=1:-3:-3 / analyse=0x3:0x133 / me=umh / subme=9 / psy=1 / psy_rd=1.20:0.00 / mixed_ref=1 / me_range=32 / chroma_me=1 / trellis=2 / 8x8dct=1 / cqm=0 / deadzone=21,11 / fast_pskip=0 / chroma_qp_offset=-2 / threads=6 / sliced_threads=0 / nr=0 / decimate=0 / interlaced=0 / constrained_intra=0 / bframes=6 / b_pyramid=2 / b_adapt=2 / b_bias=0 / direct=3 / weightb=1 / open_gop=0 / weightp=2 / keyint=250 / keyint_min=24 / scenecut=40 / intra_refresh=0 / rc_lookahead=60 / rc=2pass / mbtree=1 / bitrate=15500 / ratetol=1.0 / qcomp=0.75 / qpmin=10 / qpmax=51 / qpstep=4 / cplxblur=20.0 / qblur=0.5 / vbv_maxrate=50000 / vbv_bufsize=62500 / ip_ratio=1.40 / aq=1:0.80 / nal_hrd=none

Language : French

Default : No

Forced : No

Audio

ID : 2

Format : DTS

Format/Info : Digital Theater Systems

Codec ID : A_DTS

Duration : 1 h 44 min

Bit rate mode : Constant

Bit rate : 768 kb/s

Channel(s) : 2 channels

Channel layout : L R

Sampling rate : 48.0 kHz

Frame rate : 93.750 FPS (512 SPF)

Bit depth : 16 bits

Compression mode : Lossy

Stream size : 573 MiB (5%)

Title : French

Language : French

Default : Yes

Forced : No

General

Complete name : Fantomas.contre.Scotland.Yard.(1967).1080p.BluRay.DTS.[Borsalino]Fantomas.contre.Scotland.Yard.(1967).1080p.BluRay.DTS.[Borsalino].DE.srt

Format : SubRip

File size : 86.4 KiB

Text

Format : SubRip

Compression mode : Lossless

General

Complete name : Fantomas.contre.Scotland.Yard.(1967).1080p.BluRay.DTS.[Borsalino]Fantomas.contre.Scotland.Yard.(1967).1080p.BluRay.DTS.[Borsalino].EL.srt

Format : SubRip

File size : 63.2 KiB

Text

Format : SubRip

Compression mode : Lossless

General

Complete name : Fantomas.contre.Scotland.Yard.(1967).1080p.BluRay.DTS.[Borsalino]Fantomas.contre.Scotland.Yard.(1967).1080p.BluRay.DTS.[Borsalino].EN.srt

Format : SubRip

File size : 70.4 KiB

Text

Format : SubRip

Compression mode : Lossless

General

Complete name : Fantomas.contre.Scotland.Yard.(1967).1080p.BluRay.DTS.[Borsalino]Fantomas.contre.Scotland.Yard.(1967).1080p.BluRay.DTS.[Borsalino].ES.srt

Format : SubRip

File size : 61.3 KiB

Text

Format : SubRip

Compression mode : Lossless

General

Complete name : Fantomas.contre.Scotland.Yard.(1967).1080p.BluRay.DTS.[Borsalino]Fantomas.contre.Scotland.Yard.(1967).1080p.BluRay.DTS.[Borsalino].FR.srt

Format : SubRip

File size : 87.4 KiB

Text

Format : SubRip

Compression mode : Lossless

General

Complete name : Fantomas.contre.Scotland.Yard.(1967).1080p.BluRay.DTS.[Borsalino]Fantomas.contre.Scotland.Yard.(1967).1080p.BluRay.DTS.[Borsalino].IT.srt

Format : SubRip

File size : 86.0 KiB

Text

Format : SubRip

Compression mode : Lossless

General

Complete name : Fantomas.contre.Scotland.Yard.(1967).1080p.BluRay.DTS.[Borsalino]Fantomas.contre.Scotland.Yard.(1967).1080p.BluRay.DTS.[Borsalino].NL.srt

Format : SubRip

File size : 60.2 KiB

Text

Format : SubRip

Compression mode : Lossless

General

Complete name : Fantomas.contre.Scotland.Yard.(1967).1080p.BluRay.DTS.[Borsalino]Fantomas.contre.Scotland.Yard.(1967).1080p.BluRay.DTS.[Borsalino].RO.srt

Format : SubRip

File size : 70.4 KiB

Text

Format : SubRip

Compression mode : Lossless

General

Complete name : Fantomas.contre.Scotland.Yard.(1967).1080p.BluRay.DTS.[Borsalino]Fantomas.contre.Scotland.Yard.(1967).1080p.BluRay.DTS.[Borsalino].RU.srt

Format : SubRip

File size : 85.0 KiB

Text

Format : SubRip

Compression mode : Lossless

General

Complete name : Fantomas.contre.Scotland.Yard.(1967).1080p.BluRay.DTS.[Borsalino]Fantomas.contre.Scotland.Yard.(1967).1080p.BluRay.DTS.[Borsalino].mkv

Format : Matroska

Format version : Version 4

File size : 17.5 GiB

Duration : 1 h 40 min

Overall bit rate mode : Variable

Overall bit rate : 24.9 Mb/s

Movie name : Fantomas.contre.Scotland.Yard.(1967).1080p.BluRay.DTS.[Borsalino]
Writing application : mkvmerge v56.1.0 (‘My Friend’) 64-bit

Writing library : libebml v1.4.2 + libmatroska v1.6.4

Video

ID : 1

Format : AVC

Format/Info : Advanced Video Codec

Format profile : [email protected]
Format settings : CABAC / 4 Ref Frames

Format settings, CABAC : Yes

Format settings, Reference frames : 4 frames

Format settings, GOP : M=3, N=12

Codec ID : V_MPEG4/ISO/AVC

Duration : 1 h 40 min

Bit rate mode : Variable

Bit rate : 24.0 Mb/s

Maximum bit rate : 36.0 Mb/s

Width : 1 920 pixels

Height : 1 080 pixels

Display aspect ratio : 16:9

Frame rate mode : Constant

Frame rate : 24.000 FPS

Color space : YUV

Chroma subsampling : 4:2:0

Bit depth : 8 bits

Scan type : Progressive

Bits/(Pixel*Frame) : 0.482

Stream size : 16.9 GiB (96%)

Title : French

Language : French

Default : Yes

Forced : No

Color range : Limited

Color primaries : BT.709

Transfer characteristics : BT.709

Matrix coefficients : BT.709

Audio

ID : 2

Format : DTS XLL

Format/Info : Digital Theater Systems

Commercial name : DTS-HD Master Audio

Codec ID : A_DTS

Duration : 1 h 40 min

Bit rate mode : Variable

Bit rate : 871 kb/s

Channel(s) : 2 channels

Channel layout : L R

Sampling rate : 48.0 kHz

Frame rate : 93.750 FPS (512 SPF)

Bit depth : 16 bits

Compression mode : Lossless

Stream size : 629 MiB (4%)

Title : French

Language : French

Default : Yes

Forced : No

General

Complete name : Fantomas.se.déchaîne.(1965).1080p.BluRay.DTS.[Borsalino]Fantomas.se.déchaîne.(1965).1080p.BluRay.DTS.[Borsalino].DE.srt

Format : SubRip

File size : 71.4 KiB

Text

Format : SubRip

Compression mode : Lossless

General

Complete name : Fantomas.se.déchaîne.(1965).1080p.BluRay.DTS.[Borsalino]Fantomas.se.déchaîne.(1965).1080p.BluRay.DTS.[Borsalino].EL.srt

Format : SubRip

File size : 52.4 KiB

Text

Format : SubRip

Compression mode : Lossless

General

Complete name : Fantomas.se.déchaîne.(1965).1080p.BluRay.DTS.[Borsalino]Fantomas.se.déchaîne.(1965).1080p.BluRay.DTS.[Borsalino].EN.srt

Format : SubRip

File size : 55.3 KiB

Text

Format : SubRip

Compression mode : Lossless

General

Complete name : Fantomas.se.déchaîne.(1965).1080p.BluRay.DTS.[Borsalino]Fantomas.se.déchaîne.(1965).1080p.BluRay.DTS.[Borsalino].ES.srt

Format : SubRip

File size : 56.3 KiB

Text

Format : SubRip

Compression mode : Lossless

General

Complete name : Fantomas.se.déchaîne.(1965).1080p.BluRay.DTS.[Borsalino]Fantomas.se.déchaîne.(1965).1080p.BluRay.DTS.[Borsalino].FR.srt

Format : SubRip

File size : 72.6 KiB

Text

Format : SubRip

Compression mode : Lossless

General

Complete name : Fantomas.se.déchaîne.(1965).1080p.BluRay.DTS.[Borsalino]Fantomas.se.déchaîne.(1965).1080p.BluRay.DTS.[Borsalino].IT.srt

Format : SubRip

File size : 72.2 KiB

Text

Format : SubRip

Compression mode : Lossless

General

Complete name : Fantomas.se.déchaîne.(1965).1080p.BluRay.DTS.[Borsalino]Fantomas.se.déchaîne.(1965).1080p.BluRay.DTS.[Borsalino].NL.srt

Format : SubRip

File size : 56.3 KiB

Text

Format : SubRip

Compression mode : Lossless

General

Complete name : Fantomas.se.déchaîne.(1965).1080p.BluRay.DTS.[Borsalino]Fantomas.se.déchaîne.(1965).1080p.BluRay.DTS.[Borsalino].RO.srt

Format : SubRip

File size : 64.9 KiB

Text

Format : SubRip

Compression mode : Lossless

General

Complete name : Fantomas.se.déchaîne.(1965).1080p.BluRay.DTS.[Borsalino]Fantomas.se.déchaîne.(1965).1080p.BluRay.DTS.[Borsalino].RU.srt

Format : SubRip

File size : 72.2 KiB

Text

Format : SubRip

Compression mode : Lossless

General

Complete name : Fantomas.se.déchaîne.(1965).1080p.BluRay.DTS.[Borsalino]Fantomas.se.déchaîne.(1965).1080p.BluRay.DTS.[Borsalino].mkv

Format : Matroska

Format version : Version 4

File size : 17.1 GiB

Duration : 1 h 38 min

Overall bit rate mode : Variable

Overall bit rate : 24.8 Mb/s

Movie name : Fantomas.se.déchaîne.(1965).1080p.BluRay.DTS.[Borsalino]
Writing application : mkvmerge v56.1.0 (‘My Friend’) 64-bit

Writing library : libebml v1.4.2 + libmatroska v1.6.4

Video

ID : 1

Format : AVC

Format/Info : Advanced Video Codec

Format profile : [email protected]
Format settings : CABAC / 4 Ref Frames

Format settings, CABAC : Yes

Format settings, Reference frames : 4 frames

Format settings, GOP : M=3, N=12

Codec ID : V_MPEG4/ISO/AVC

Duration : 1 h 38 min

Bit rate mode : Variable

Bit rate : 24.0 Mb/s

Maximum bit rate : 36.0 Mb/s

Width : 1 920 pixels

Height : 1 080 pixels

Display aspect ratio : 16:9

Frame rate mode : Constant

Frame rate : 24.000 FPS

Color space : YUV

Chroma subsampling : 4:2:0

Bit depth : 8 bits

Scan type : Progressive

Bits/(Pixel*Frame) : 0.482

Stream size : 16.6 GiB (97%)

Title : French

Language : French

Default : Yes

Forced : No

Color range : Limited

Color primaries : BT.709

Transfer characteristics : BT.709

Matrix coefficients : BT.709

Audio

ID : 2

Format : DTS XLL

Format/Info : Digital Theater Systems

Commercial name : DTS-HD Master Audio

Codec ID : A_DTS

Duration : 1 h 38 min

Bit rate mode : Variable

Bit rate : 843 kb/s

Channel(s) : 2 channels

Channel layout : L R

Sampling rate : 48.0 kHz

Frame rate : 93.750 FPS (512 SPF)

Bit depth : 16 bits

Compression mode : Lossless

Stream size : 596 MiB (3%)

Title : French

Language : French

Default : Yes

Forced : No

Spoken language

All movies

Subtitles (srt files)

All movies

All movies

All movies

All movies

All movies

All movies

All movies

Just one movie, “Fantomas” 1964

All movies

All movies















Fantomas Trilogy 1080p BluRayDownload Torrent Magnet

#Fantomas #Trilogy #1080p #BluRay