Face.Off.1997.BRRip.XviD.B4ND Full Torrent Magnet Download

Download Torrent Face.Off.1997.BRRip.XviD.B4ND Movie Full in HD Result. Movie Face.Off.1997.BRRip.XviD.B4ND Torrent Download full. Movie Face.Off.1997.BRRip.XviD.B4ND torrent Magnet Download Full. Face.Off.1997.BRRip.XviD.B4ND Full Movie Torrent Download And Magnet Download For your PC And Mobiles. Latest Movie Face.Off.1997.BRRip.XviD.B4ND Download Link In Bottom.

Torrent And Magnet Links Below

Face.Off.1997.BRRip.XviD.B4ND1T69

Director: John Woo

Writers: Mike Werb, Michael Colleary

Stars: John Travolta, Nicolas Cage, Joan Allen

Plot/Story:

In order to foil a terrorist plot, an FBI agent undergoes facial transplant surgery and assumes the identity of a criminal mastermind, who murdered his only son. The plan turns sour when the criminal wakes up prematurely and seeks revenge.

General

Complete name : Face.Off.1997.BRRip.XviD.B4ND1T69.avi

Format : AVI

Format/Info : Audio Video Interleave

File size : 1.67 GiB

Duration : 2 h 18 min

Overall bit rate : 1 725 kb/s

Subtitles : Yes…Included(HI)

Video

ID : 0

Format : MPEG-4 Visual

Format profile : Advanced [email protected]
Format settings, BVOP : 2

Format settings, QPel : No

Format settings, GMC : No warppoints

Format settings, Matrix : Default (H.263)

Codec ID : XVID

Codec ID/Hint : XviD

Duration : 2 h 18 min

Bit rate : 1 584 kb/s

Width : 720 pixels

Height : 304 pixels

Display aspect ratio : 2.35:1

Frame rate : 23.976 (24000/1001) FPS

Color space : YUV

Chroma subsampling : 4:2:0

Bit depth : 8 bits

Scan type : Progressive

Compression mode : Lossy

Bits/(Pixel*Frame) : 0.302

Stream size : 1.54 GiB (92%)

Writing library : XviD 64

Audio

ID : 1

Format : MPEG Audio

Format version : Version 1

Format profile : Layer 3

Codec ID : 55

Codec ID/Hint : MP3

Duration : 2 h 18 min

Bit rate mode : Constant

Bit rate : 128 kb/s

Channel(s) : 2 channels

Sampling rate : 48.0 kHz

Compression mode : Lossy

Stream size : 127 MiB (7%)

Alignment : Aligned on interleaves

Interleave, duration : 24 ms (0.58 video frame)

Screenshots:









Please Seed For As Long As Possible

Or At Least 1:1 Ratio…Thanks

Enjoy Peeps

Face.Off.1997.BRRip.XviD.B4NDDownload Torrent Magnet

#FaceOff1997BRRipXviDB4ND