Face Off (1997) (1080p BluRay Full Torrent Magnet Download

Download Torrent Face Off (1997) (1080p BluRay Movie Full in HD Result. Movie Face Off (1997) (1080p BluRay Torrent Download full. Movie Face Off (1997) (1080p BluRay torrent Magnet Download Full. Face Off (1997) (1080p BluRay Full Movie Torrent Download And Magnet Download For your PC And Mobiles. Latest Movie Face Off (1997) (1080p BluRay Download Link In Bottom.

Torrent And Magnet Links Below

Media Information
I refuse to be limited to the sources that the studios let us have. As such I used AI Inference Software and days of processing to create a new source sharp and clean of compression artifacts. Enjoy this world exclusive 4K Source from the good people at UTR.

That being said, many of these old movies that never got a UHD release show why. Even the 1080p blu-ray lacks detail and often looks out of focus. Looking at them side by side, my release is clearly superior image and that’s why we are here. – JoyBell

Media Information

Code:

General
Format : Matroska

Format version : Version 4 / Version 2

File size : 1.78 GiB

Duration : 2 h 18 min

Overall bit rate : 1 839 kb/s

Encoded date : UTC 2021-02-12 06:26:42

Writing application : mkvmerge v52.0.0 (‘Secret For The Mad’) 64-bit

Writing library : libebml v1.4.1 + libmatroska v1.6.2

Cover : Yes

Attachments : cover.jpg

Video
ID : 1

Format : HEVC

Format/Info : High Efficiency Video Coding

Format profile : Main [email protected]@Main

Codec ID : V_MPEGH/ISO/HEVC

Duration : 2 h 18 min

Bit rate : 1 501 kb/s

Width : 1 920 pixels

Height : 816 pixels

Display aspect ratio : 2.35:1

Frame rate mode : Constant

Frame rate : 23.976 (24000/1001) FPS

Color space : YUV

Chroma subsampling : 4:2:0

Bit depth : 10 bits

Bits/(Pixel*Frame) : 0.040

Stream size : 1.46 GiB (82%)

Writing library : x265 3.2+9-971180b100f8:[Windows][MSVC 1923][64 bit] 10bit

Encoding settings : cpuid=1111039 / frame-threads=4 / numa-pools=24 / wpp / no-pmode / no-pme / no-psnr / ssim / log-level=2 / input-csp=1 / input-res=1920×816 / interlace=0 / total-frames=199864 / level-idc=0 / high-tier=1 / uhd-bd=0 / ref=4 / no-allow-non-conformance / no-repeat-headers / annexb / no-aud / no-hrd / info / hash=0 / no-temporal-layers / open-gop / min-keyint=23 / keyint=250 / gop-lookahead=0 / bframes=8 / b-adapt=2 / b-pyramid / bframe-bias=40 / rc-lookahead=80 / lookahead-slices=4 / scenecut=40 / radl=0 / no-splice / no-intra-refresh / ctu=64 / min-cu-size=8 / rect / no-amp / max-tu-size=32 / tu-inter-depth=1 / tu-intra-depth=1 / limit-tu=0 / rdoq-level=2 / dynamic-rd=0.00 / ssim-rd / signhide / no-tskip / nr-intra=0 / nr-inter=0 / constrained-intra / strong-intra-smoothing / max-merge=5 / limit-refs=3 / limit-modes / me=3 / subme=7 / merange=57 / temporal-mvp / no-frame-dup / no-hme / weightp / no-weightb / no-analyze-src-pics / deblock=0:0 / sao / no-sao-non-deblock / rd=4 / selective-sao=4 / early-skip / rskip / no-fast-intra / no-tskip-fast / no-cu-lossless / no-b-intra / splitrd-skip / rdpenalty=0 / psy-rd=3.50 / psy-rdoq=2.50 / no-rd-refine / no-lossless / cbqpoffs=0 / crqpoffs=0 / rc=abr / bitrate=1500 / qcomp=0.60 / qpstep=4 / stats-write=0 / stats-read=2 / cplxblur=20.0 / qblur=0.5 / ipratio=1.40 / pbratio=1.30 / aq-mode=3 / aq-strength=0.40 / cutree / zone-count=0 / no-strict-cbr / qg-size=32 / no-rc-grain / qpmax=69 / qpmin=0 / no-const-vbv / sar=0 / overscan=0 / videoformat=5 / range=0 / colorprim=1 / transfer=1 / colormatrix=1 / chromaloc=0 / display-window=0 / cll=0,0 / min-luma=0 / max-luma=1023 / log2-max-poc-lsb=8 / vui-timing-info / vui-hrd-info / slices=1 / no-opt-qp-pps / no-opt-ref-list-length-pps / multi-pass-opt-rps / scenecut-bias=0.05 / no-opt-cu-delta-qp / no-aq-motion / no-hdr / no-hdr-opt / no-dhdr10-opt / no-idr-recovery-sei / analysis-load / analysis-reuse-level=10 / scale-factor=0 / refine-intra=0 / refine-inter=0 / refine-mv=1 / refine-ctu-distortion=0 / limit-sao / ctu-info=0 / no-lowpass-dct / refine-analysis-type=0 / copy-pic=1 / max-ausize-factor=1.0 / no-dynamic-refine / no-single-sei / no-hevc-aq / no-svt / no-field / qp-adaptation-range=1.00

Default : Yes

Forced : No

Color range : Limited

Color primaries : BT.709

Transfer characteristics : BT.709

Matrix coefficients : BT.709

Audio
ID : 2

Format : AAC

Format/Info : Advanced Audio Codec

Format profile : LC

Codec ID : A_AAC

Duration : 2 h 18 min

Bit rate : 335 kb/s

Channel(s) : 6 channels

Channel positions : Front: L C R, Side: L R, LFE

Sampling rate : 48.0 kHz

Frame rate : 46.875 FPS (1024 spf)

Compression mode : Lossy

Delay relative to video : 9 ms

Stream size : 333 MiB (18%)

Language : English

Default : No

Forced : No

Subtitle #1
ID : 3

Format : ASS

Codec ID : S_TEXT/ASS

Codec ID/Info : Advanced Sub Station Alpha

Duration : 2 h 10 min

Bit rate : 72 b/s

Count of elements : 1065

Compression mode : Lossless

Stream size : 69.2 KiB (0%)

Language : English

Default : No

Forced : No

Subtitle #2
ID : 4

Format : UTF-8

Codec ID : S_TEXT/UTF8

Codec ID/Info : UTF-8 Plain Text

Duration : 2 h 16 min

Bit rate : 50 b/s

Count of elements : 1005

Stream size : 50.5 KiB (0%)

Language : Arabic

Default : No

Forced : No

Subtitle #3
ID : 5

Format : UTF-8

Codec ID : S_TEXT/UTF8

Codec ID/Info : UTF-8 Plain Text

Duration : 2 h 14 min

Bit rate : 95 b/s

Count of elements : 1061

Stream size : 93.6 KiB (0%)

Language : Bengali

Default : No

Forced : No

Subtitle #4
ID : 6

Format : UTF-8

Codec ID : S_TEXT/UTF8

Codec ID/Info : UTF-8 Plain Text

Duration : 2 h 13 min

Bit rate : 23 b/s

Count of elements : 1066

Stream size : 23.1 KiB (0%)

Language : Chinese

Default : No

Forced : No

Subtitle #5
ID : 7

Format : UTF-8

Codec ID : S_TEXT/UTF8

Codec ID/Info : UTF-8 Plain Text

Duration : 2 h 11 min

Bit rate : 30 b/s

Count of elements : 726

Stream size : 29.3 KiB (0%)

Language : Danish

Default : No

Forced : No

Subtitle #6
ID : 8

Format : UTF-8

Codec ID : S_TEXT/UTF8

Codec ID/Info : UTF-8 Plain Text

Duration : 2 h 14 min

Bit rate : 26 b/s

Count of elements : 693

Stream size : 26.0 KiB (0%)

Language : Dutch

Default : No

Forced : No

Subtitle #7
ID : 9

Format : UTF-8

Codec ID : S_TEXT/UTF8

Codec ID/Info : UTF-8 Plain Text

Duration : 2 h 10 min

Bit rate : 50 b/s

Count of elements : 899

Stream size : 48.6 KiB (0%)

Language : Persian

Default : No

Forced : No

Subtitle #8
ID : 10

Format : UTF-8

Codec ID : S_TEXT/UTF8

Codec ID/Info : UTF-8 Plain Text

Duration : 2 h 12 min

Bit rate : 32 b/s

Count of elements : 740

Stream size : 31.5 KiB (0%)

Language : Finnish

Default : No

Forced : No

Subtitle #9
ID : 11

Format : UTF-8

Codec ID : S_TEXT/UTF8

Codec ID/Info : UTF-8 Plain Text

Duration : 2 h 12 min

Bit rate : 30 b/s

Count of elements : 1019

Stream size : 29.8 KiB (0%)

Language : French

Default : No

Forced : No

Subtitle #10
ID : 12

Format : UTF-8

Codec ID : S_TEXT/UTF8

Codec ID/Info : UTF-8 Plain Text

Duration : 2 h 12 min

Bit rate : 31 b/s

Count of elements : 833

Stream size : 30.6 KiB (0%)

Language : German

Default : No

Forced : No

Subtitle #11
ID : 13

Format : UTF-8

Codec ID : S_TEXT/UTF8

Codec ID/Info : UTF-8 Plain Text

Duration : 2 h 11 min

Bit rate : 51 b/s

Count of elements : 826

Stream size : 49.0 KiB (0%)

Language : Greek

Default : No

Forced : No

Subtitle #12
ID : 14

Format : UTF-8

Codec ID : S_TEXT/UTF8

Codec ID/Info : UTF-8 Plain Text

Duration : 2 h 14 min

Bit rate : 42 b/s

Count of elements : 1025

Stream size : 42.2 KiB (0%)

Language : Hebrew

Default : No

Forced : No

Subtitle #13
ID : 15

Format : UTF-8

Codec ID : S_TEXT/UTF8

Codec ID/Info : UTF-8 Plain Text

Duration : 2 h 14 min

Bit rate : 69 b/s

Count of elements : 1022

Stream size : 68.4 KiB (0%)

Language : Indonesian

Default : No

Forced : No

Subtitle #14
ID : 16

Format : UTF-8

Codec ID : S_TEXT/UTF8

Codec ID/Info : UTF-8 Plain Text

Duration : 2 h 12 min

Bit rate : 32 b/s

Count of elements : 1036

Stream size : 31.5 KiB (0%)

Language : Italian

Default : No

Forced : No

Subtitle #15
ID : 17

Format : UTF-8

Codec ID : S_TEXT/UTF8

Codec ID/Info : UTF-8 Plain Text

Duration : 2 h 11 min

Bit rate : 29 b/s

Count of elements : 726

Stream size : 28.8 KiB (0%)

Language : Norwegian

Default : No

Forced : No

Subtitle #16
ID : 18

Format : UTF-8

Codec ID : S_TEXT/UTF8

Codec ID/Info : UTF-8 Plain Text

Duration : 2 h 13 min

Bit rate : 32 b/s

Count of elements : 1026

Stream size : 31.2 KiB (0%)

Language : Portuguese

Default : No

Forced : No

Subtitle #17
ID : 19

Format : UTF-8

Codec ID : S_TEXT/UTF8

Codec ID/Info : UTF-8 Plain Text

Duration : 2 h 10 min

Bit rate : 40 b/s

Count of elements : 1061

Stream size : 38.3 KiB (0%)

Language : Spanish

Default : No

Forced : No

Subtitle #18
ID : 20

Format : UTF-8

Codec ID : S_TEXT/UTF8

Codec ID/Info : UTF-8 Plain Text

Duration : 2 h 11 min

Bit rate : 30 b/s

Count of elements : 725

Stream size : 29.7 KiB (0%)

Language : Swedish

Default : No

Forced : No

Subtitle #19
ID : 21

Format : UTF-8

Codec ID : S_TEXT/UTF8

Codec ID/Info : UTF-8 Plain Text

Duration : 2 h 11 min

Bit rate : 63 b/s

Count of elements : 1114

Stream size : 61.4 KiB (0%)

Language : Thai

Default : No

Forced : No

Subtitle #20
ID : 22

Format : UTF-8

Codec ID : S_TEXT/UTF8

Codec ID/Info : UTF-8 Plain Text

Duration : 2 h 12 min

Bit rate : 45 b/s

Count of elements : 1120

Stream size : 44.3 KiB (0%)

Language : Vietnamese

Default : No

Forced : No

Source Information

Code:

Release: Face Off (1997) 2160p.BluRay.AI.DTS.UTR.mkv (46.33 GBs)

Code:


Note From UTR
Whilst we are happy for our releases to be re-posted on a platform we aren’t on, please do so in an ‘as-is’ format. We ask that you do not create a new torrent, include all descriptions you see above including the UTR logo, tags, notes and screenshots. If you’d like to become a permanent poster on a website we don’t post to, feel free to get in contact with a UTR member.

If possible please donate for seedboxes.

BTC – 1QA5fum5AyXvWzdVCkQzUNvw3Ef15fHRaR

Monero – 8AuksPSzY7fen3HHT1a2342PgVy4J93MKfXG3AAcayV76miTyJ3sNfn38srwrpLirGfeR5DwhTL8GW8pdQgT7bZcJ25ynMx

Dash – Xh4mNs6uwZdpCEX2HSEVwGvPD7yKxZ1Ccd

Ethereum – 0x51c06c94e74c16735a7a6e841ad29fc90a84eb1f

Face Off (1997) (1080p BluRayDownload Torrent Magnet

#Face #1080p #BluRay