Eyewitness 1970 1080p BLURAY Full Torrent Magnet Download

Download Torrent Eyewitness 1970 1080p BLURAY Movie Full in HD Result. Movie Eyewitness 1970 1080p BLURAY Torrent Download full. Movie Eyewitness 1970 1080p BLURAY torrent Magnet Download Full. Eyewitness 1970 1080p BLURAY Full Movie Torrent Download And Magnet Download For your PC And Mobiles. Latest Movie Eyewitness 1970 1080p BLURAY Download Link In Bottom.

Torrent And Magnet Links Below

Eyewitness 1970 1080p BLURAY REMUX AVC PCM 4.1 – iCMAL [TGx]

mpaa rating

Certification
Argentina:14 Australia:A (original rating) Australia:M (2004, re-rating) Finland:K-16 Hungary:16 (original rating) Norway:16 Sweden:15 United Kingdom:A (original rating) United Kingdom:15 (1989, video rating) United States:PG (DVD rating) United States:GP

Witnessing an assassination, a boy claims the assassins are hunting him. With his older sister, the pair escape numerous attacks and are aided by their grandfather and a resourceful young

Director: John Hough

Writers: Ronald Harwood (screenplay), John Harris (novel) (as Mark Hebden)

Stars: Mark Lester, Lionel Jeffries, Susan George

Storyline

Witnessing an assassination, a boy claims the assassins are hunting him. With his older sister, the pair escape numerous attacks and are aided by their grandfather and a resourceful young bystander even under the spectre of martial law.

DownloadsEyewitness 1970 1080p BLURAY REMUX AVC PCM 4.1 – iCMAL [TGx]Eyewitness 1970 1080p BLURAY REMUX AVC PCM 4.1 – iCMAL.mkv

Format : Matroska

Format version : Version 4

File size : 17.0 GiB

Duration : 1 h 31 min

Overall bit rate mode : Variable

Overall bit rate : 26.5 Mb/s

Movie name : Eyewitness 1970 1080p BLURAY REMUX AVC PCM 4.1 – iCMAL

Encoded date : UTC 2021-01-31 21:36:50

Writing application : mkvmerge v10.0.0 (‘To Drown In You’) 64bit

Writing library : libebml v1.3.4 + libmatroska v1.4.5

Video

ID : 1

Format : AVC

Format/Info : Advanced Video Codec

Format profile : [email protected]
Format settings : CABAC / 3 Ref Frames

Format settings, CABAC : Yes

Format settings, Reference frames : 3 frames

Format settings, GOP : M=3, N=12

Codec ID : V_MPEG4/ISO/AVC

Duration : 1 h 31 min

Bit rate mode : Variable

Bit rate : 25.0 Mb/s

Maximum bit rate : 33.0 Mb/s

Width : 1 920 pixels

Height : 1 080 pixels

Display aspect ratio : 16:9

Frame rate mode : Constant

Frame rate : 24.000 FPS

Standard : NTSC

Color space : YUV

Chroma subsampling : 4:2:0

Bit depth : 8 bits

Scan type : Progressive

Bits/(Pixel*Frame) : 0.502

Stream size : 16.0 GiB (94%)

Title : REMUX BY_ iCMAL

Default : Yes

Forced : No

Color range : Limited

Color primaries : BT.709

Transfer characteristics : BT.709

Matrix coefficients : BT.709

Audio

ID : 2

Format : PCM

Format settings : Little / Signed

Codec ID : A_PCM/INT/LIT

Duration : 1 h 31 min

Bit rate mode : Constant

Bit rate : 1 536 kb/s

Channel(s) : 2 channels

Sampling rate : 48.0 kHz

Frame rate : 200.000 FPS (240 SPF)

Bit depth : 16 bits

Stream size : 1 010 MiB (6%)

Title : REMUX BY_ iCMAL

Language : English

Default : Yes

Forced : No

Eyewitness 1970 1080p BLURAY Download Torrent Magnet

#Eyewitness #1080p #BLURAY