eXistenZ.1999.BRRip.XviD.B4ND Full Torrent Magnet Download

Download Torrent eXistenZ.1999.BRRip.XviD.B4ND Movie Full in HD Result. Movie eXistenZ.1999.BRRip.XviD.B4ND Torrent Download full. Movie eXistenZ.1999.BRRip.XviD.B4ND torrent Magnet Download Full. eXistenZ.1999.BRRip.XviD.B4ND Full Movie Torrent Download And Magnet Download For your PC And Mobiles. Latest Movie eXistenZ.1999.BRRip.XviD.B4ND Download Link In Bottom.

Torrent And Magnet Links Below

eXistenZ.1999.BRRip.XviD.B4ND1T69

Director: David Cronenberg

Writer: David Cronenberg

Stars: Jude Law, Jennifer Jason Leigh, Ian Holm

Plot/Story:

A game designer on the run from assassins must play her latest virtual reality creation with a marketing trainee to determine if the game has been damaged.

General

Complete name : eXistenZ.1999.BRRip.XviD.B4ND1T69.avi

Format : AVI

Format/Info : Audio Video Interleave

File size : 901 MiB

Duration : 1 h 37 min

Overall bit rate : 1 296 kb/s

Subtitles : Yes…Included

Video

ID : 0

Format : MPEG-4 Visual

Format profile : Advanced [email protected]
Format settings, BVOP : 2

Format settings, QPel : No

Format settings, GMC : No warppoints

Format settings, Matrix : Default (H.263)

Codec ID : XVID

Codec ID/Hint : XviD

Duration : 1 h 37 min

Bit rate : 1 155 kb/s

Width : 720 pixels

Height : 400 pixels

Display aspect ratio : 16:9

Frame rate : 23.976 (24000/1001) FPS

Color space : YUV

Chroma subsampling : 4:2:0

Bit depth : 8 bits

Scan type : Progressive

Compression mode : Lossy

Bits/(Pixel*Frame) : 0.167

Stream size : 803 MiB (89%)

Writing library : XviD 64

Audio

ID : 1

Format : MPEG Audio

Format version : Version 1

Format profile : Layer 3

Codec ID : 55

Codec ID/Hint : MP3

Duration : 1 h 37 min

Bit rate mode : Constant

Bit rate : 128 kb/s

Channel(s) : 2 channels

Sampling rate : 48.0 kHz

Compression mode : Lossy

Stream size : 88.9 MiB (10%)

Alignment : Aligned on interleaves

Interleave, duration : 24 ms (0.58 video frame)

Screenshots:









Please Seed For As Long As Possible

Or At Least 1:1 Ratio…Thanks

Enjoy Peeps

eXistenZ.1999.BRRip.XviD.B4NDDownload Torrent Magnet

#eXistenZ1999BRRipXviDB4ND