Excalibur 1981 BR AC3 VFF ENG Full Torrent Magnet Download

Download Torrent Excalibur 1981 BR AC3 VFF ENG Movie Full in HD Result. Movie Excalibur 1981 BR AC3 VFF ENG Torrent Download full. Movie Excalibur 1981 BR AC3 VFF ENG torrent Magnet Download Full. Excalibur 1981 BR AC3 VFF ENG Full Movie Torrent Download And Magnet Download For your PC And Mobiles. Latest Movie Excalibur 1981 BR AC3 VFF ENG Download Link In Bottom.

Torrent And Magnet Links Below

______________________________________________________________________________________________________________
Excalibur 1981
Bluray · 1080p x265 10bits · DD 1.0 VFF ENG
¯¯¯¯¯¯¯¯¯¯¯¯¯¯¯¯¯¯¯¯¯¯¯¯¯¯¯¯¯¯¯¯¯¯¯¯¯¯¯¯¯¯¯¯¯¯¯¯¯¯¯¯¯¯¯¯¯¯¯¯¯¯¯¯¯¯¯¯¯¯¯¯¯¯¯¯¯¯¯¯

Year : 1981

Country : United States, United Kingdom

Original title : Excalibur

Director : John Boorman
Music from : Trevor Jones, Carl Orff, Richard Wagner

Acteurs : Nigel Terry, Helen Mirren, Nicholas Clay, Cherie Lunghi, Paul Geoffrey, Nicol Williamson, Robert Addie, Gabriel Byrne

Keith Buckley, Katrine Boorman, Liam Neeson, Corin Redgrave, Niall O’Brien, Patrick Stewart, Clive Swiff, Ciarin Hinds

Genre : Medieval-Fantasy, Adventure, History, Drama

Certificate : All public
Budget : 12 000 000 $ · Recipe : 34 967 437 $ · ratio : 291 %

Link : Allociné 3,7 /5 · IMDB 7,4 /10 · TMDB 65 % · SensCritique 7,2 /10 · Wiki · Bande Annonce

French Plot
Uter Pendragon reçoit de Merlin l’Enchanteur l’épée mythique Excalibur . A la mort d’Uter, l’épée reste figée dans une stèle de granit. Seul le jeune Arthur , fils illégitime d’Uter parvient à brandir l’épée Excalibur et devient par ce geste le roi d’Angleterre. Quelques années plus tard, il épouse Guenièvre et réunit les Chevaliers de la Table Ronde. Mais sa demi-soeur, la méchante Morgane , parvient à avoir un fils d’Arthur qui va le pousser à sa perte…

Adaptation du livre : Le Morte d’Arthur de Thomas Malory 1485 qui raconte la légende du Roi Arthur

Technical Details
¯¯¯¯¯¯¯¯¯¯¯¯¯¯¯¯¯¯¯¯¯¯¯¯¯¯¯¯¯¯¯¯¯¯¯¯¯¯¯¯¯¯¯¯¯¯¯¯¯¯¯¯¯¯¯¯¯¯¯¯¯¯¯¯¯¯¯¯¯¯¯¯¯¯¯¯¯¯¯¯¯¯¯¯¯¯¯¯¯¯¯¯¯¯¯¯¯¯¯¯
Media
Matroska 4,96 Gio 2 h20 mn 5045 Kbps

Video
HEVC/H265 1920×1080 @23.976 [email protected]@Main 10 bits 4258 Kbps VerySlow
Audio
True French 1.0 AC3 192 Kbps 48KHz 16bits

English 5.1 EAC3 448 Kbps 48KHz 16bits

English comment by John Boorman 2.0 EAC3 128 Kbps 48KHz 16bits

Subtitles
True French Forced SRT

True French Full SRT

True French Forced PGS

True French Full PGS

English full SDH PGS

Chapters
International, True French, English

Screenshot

NFO
¯¯¯¯¯¯¯¯¯¯¯¯¯¯¯¯¯¯¯¯¯¯¯¯¯¯¯¯¯¯¯¯¯¯¯¯¯¯¯¯¯¯¯¯¯¯¯¯¯¯¯¯¯¯¯¯¯¯¯¯¯¯¯¯¯¯¯¯¯¯¯¯¯¯¯¯¯¯¯¯¯¯¯¯¯¯¯¯¯¯¯¯¯¯¯¯¯¯¯¯

General
Format : Matroska
Format version : Version 4

File size : 4.96 GiB
Duration : 2 h 20 min

Overall bit rate : 5 045 kb/s

Movie name : Excalibur 1981 de John Boorman avec Nigel Terry, Helen Mirren, Nicholas Clay, Cherie Lunghi, Paul Geoffrey, Nicol Williamson, Robert Addie, Gabriel Byrne, Keith Buckley, Katrine Boorman, Liam Neeson, Corin Redgrave, Niall O’Brien, Patrick Stewart, Clive Swiff, Ciarin Hinds. Tout public (allocine=39179,imdb=tt0082348) T0M
Encoded date : UTC 2019-04-26 10:25:24

Writing application : mkvmerge v8.0.0 (‘Til The Day That I Die’) 64bit

Writing library : libebml v1.3.1 + libmatroska v1.4.2

Cover : Yes

Attachments : Cover.jpg

Video
ID : 1

Format : HEVC
Format/Info : High Efficiency Video Coding

Format profile : Main [email protected]@Main

Codec ID : V_MPEGH/ISO/HEVC

Duration : 2 h 20 min

Bit rate : 4 258 kb/s

Width : 1 920 pixels

Height : 1 080 pixels

Display aspect ratio : 16:9

Frame rate mode : Constant

Frame rate : 23.976 (24000/1001) FPS

Color space : YUV

Chroma subsampling : 4:2:0

Bit depth : 10 bits

Bits/(Pixel*Frame) : 0.086

Stream size : 4.19 GiB (84%)

Title : Video HEVC 1920×1080 @23.976 x265 [email protected]@Main 10bits veryslow 3076mn
Writing library : x265 2.9:[Windows][GCC 8.2.0][64 bit] 10bit

Encoding settings : cpuid=1111039 / frame-threads=3 / numa-pools=8 / wpp / no-pmode / no-pme / no-psnr / no-ssim / log-level=2 / input-csp=1 / input-res=1920×1080 / interlace=0 / total-frames=0 / level-idc=0 / high-tier=1 / uhd-bd=0 / ref=5 / no-allow-non-conformance / no-repeat-headers / annexb / no-aud / no-hrd / info / hash=0 / no-temporal-layers / open-gop / min-keyint=24 / keyint=240 / gop-lookahead=0 / bframes=8 / b-adapt=2 / b-pyramid / bframe-bias=0 / rc-lookahead=120 / lookahead-slices=0 / scenecut=40 / radl=0 / no-intra-refresh / ctu=64 / min-cu-size=8 / rect / amp / max-tu-size=32 / tu-inter-depth=3 / tu-intra-depth=3 / limit-tu=4 / rdoq-level=2 / dynamic-rd=0.00 / no-ssim-rd / signhide / no-tskip / nr-intra=0 / nr-inter=0 / no-constrained-intra / strong-intra-smoothing / max-merge=4 / limit-refs=1 / limit-modes / me=3 / subme=4 / merange=57 / temporal-mvp / weightp / weightb / no-analyze-src-pics / deblock=0:0 / sao / no-sao-non-deblock / rd=6 / no-early-skip / rskip / no-fast-intra / no-tskip-fast / no-cu-lossless / b-intra / no-splitrd-skip / rdpenalty=0 / psy-rd=2.00 / psy-rdoq=1.00 / no-rd-refine / no-lossless / cbqpoffs=0 / crqpoffs=0 / rc=crf / crf=24.0 / qcomp=0.60 / qpstep=4 / stats-write=0 / stats-Read=0 / ipratio=1.40 / pbratio=1.30 / aq-mode=1 / aq-strength=1.00 / cutree / zone-count=0 / no-strict-cbr / qg-size=32 / no-rc-grain / qpmax=69 / qpmin=0 / no-const-vbv / sar=1 / overscan=0 / videoformat=5 / range=0 / colorprim=1 / transfer=1 / colormatrix=1 / chromaloc=0 / display-window=0 / max-cll=0,0 / min-luma=0 / max-luma=1023 / log2-max-poc-lsb=8 / vui-timing-info / vui-hrd-info / slices=1 / no-opt-qp-pps / no-opt-ref-list-length-pps / no-multi-pass-opt-rps / scenecut-bias=0.05 / no-opt-cu-delta-qp / no-aq-motion / no-hdr / no-hdr-opt / no-dhdr10-opt / no-idr-recovery-sei / analysis-reuse-level=5 / scale-factor=0 / refine-intra=0 / refine-inter=0 / refine-mv=0 / no-limit-sao / ctu-info=0 / no-lowpass-dct / refine-mv-type=0 / copy-pic=1 / max-ausize-factor=1.0 / no-dynamic-refine / no-single-sei

Default : Yes

Forced : No

Color range : Limited

Color primaries : BT.709

Transfer characteristics : BT.709

Matrix coefficients : BT.709

Audio #1
ID : 2

Format : AC-3
Format/Info : Audio Coding 3

Commercial name : Dolby Digital

Codec ID : A_AC3

Duration : 2 h 20 min

Bit rate mode : Constant

Bit rate : 192 kb/s

Channel(s) : 1 channel

Channel layout : C

Sampling rate : 48.0 kHz

Frame rate : 31.250 FPS (1536 SPF)

Bit depth : 16 bits

Compression mode : Lossy

Delay relative to video : 5 ms

Stream size : 193 MiB (4%)

Title : Français 1.0 AC3 192kbps 48khz 16bits (original)
Language : French
Service kind : Complete Main

Default : No

Forced : No

Audio #2
ID : 3

Format : E-AC-3
Format/Info : Enhanced AC-3

Commercial name : Dolby Digital Plus

Codec ID : A_EAC3

Duration : 2 h 20 min

Bit rate mode : Constant

Bit rate : 448 kb/s

Channel(s) : 6 channels

Channel layout : L R C LFE Ls Rs

Sampling rate : 48.0 kHz

Frame rate : 31.250 FPS (1536 SPF)

Compression mode : Lossy

Stream size : 451 MiB (9%)

Title : English 5.1 EAC3 448kbps 48khz 16bits
Language : English
Service kind : Complete Main

Default : No

Forced : No

Audio #3
ID : 4

Format : E-AC-3
Format/Info : Enhanced AC-3

Commercial name : Dolby Digital Plus

Codec ID : A_EAC3

Duration : 2 h 20 min

Bit rate mode : Constant

Bit rate : 128 kb/s

Channel(s) : 2 channels

Channel layout : L R

Sampling rate : 48.0 kHz

Frame rate : 31.250 FPS (1536 SPF)

Compression mode : Lossy

Stream size : 129 MiB (3%)

Title : English comment by John Boorman 2.0 EAC3 128kbps 48khz 16bits
Language : English
Service kind : Complete Main

Default : No

Forced : No

Text #1
ID : 5

Format : UTF-8
Codec ID : S_TEXT/UTF8

Codec ID/Info : UTF-8 Plain Text

Duration : 2 h 20 min

Bit rate : 0 b/s

Count of elements : 8

Stream size : 358 Bytes (0%)

Title : Français forcé (Passages)
Language : French
Default : Yes

Forced : Yes

Text #2
ID : 6

Format : UTF-8
Codec ID : S_TEXT/UTF8

Codec ID/Info : UTF-8 Plain Text

Duration : 2 h 20 min

Bit rate : 30 b/s

Count of elements : 1127

Stream size : 31.3 KiB (0%)

Title : Français complet (Tous le film)
Language : French
Default : No

Forced : No

Text #3
ID : 7

Format : PGS
Muxing mode : zlib

Codec ID : S_HDMV/PGS

Codec ID/Info : Picture based subtitle format used on BDs/HD-DVDs

Duration : 2 h 20 min

Bit rate : 44 b/s

Count of elements : 14

Stream size : 45.8 KiB (0%)

Title : Français forcé (Passages) PGS
Language : French
Default : No

Forced : Yes

Text #4
ID : 8

Format : PGS
Muxing mode : zlib

Codec ID : S_HDMV/PGS

Codec ID/Info : Picture based subtitle format used on BDs/HD-DVDs

Duration : 2 h 20 min

Bit rate : 7 093 b/s

Count of elements : 2252

Stream size : 7.12 MiB (0%)

Title : Français complet (Tous le film) PGS
Language : French
Default : No

Forced : No

Text #5
ID : 9

Format : PGS
Muxing mode : zlib

Codec ID : S_HDMV/PGS

Codec ID/Info : Picture based subtitle format used on BDs/HD-DVDs

Duration : 2 h 18 min

Bit rate : 8 802 b/s

Count of elements : 2668

Stream size : 8.74 MiB (0%)

Title : English full SDH PGS
Language : English
Default : No

Forced : No

Menu
00:00:00.000 : :01 – 00:00:00 – fr:L’âge des ténèbres – en:The Dark Ages

00:03:17.488 : :02 – 00:03:17 – fr:Épée de pouvoir – en:Sword of Power

00:05:03.553 : :03 – 00:05:03 – fr:La luxure brise une trêve – en:Lust Shatters a Truce

00:07:51.095 : :04 – 00:07:51 – fr:Une affaire – en:A Bargain

00:10:33.841 : :05 – 00:10:33 – fr:Le souffle du dragon – en:The Dragon’s Breath

00:13:37.149 : :06 – 00:13:37 – fr:Uther et Igraine – en:Uther and Igrayne

00:16:11.971 : :07 – 00:16:11 – fr:La réclamation de Merlin – en:Merlin’s Claim

00:19:48.061 : :08 – 00:19:48 – fr:La chute d’Uther – en:Uther’s Fall

00:23:05.217 : :09 – 00:23:05 – fr:Jour de joutes – en:Jousting Day

00:26:09.901 : :10 – 00:26:09 – fr:Arthur tire l’Épée – en:Arthur Draws the Sword

00:30:53.142 : :11 – 00:30:53 – fr:Arthur et Merlin – en:Arthur and Merlin

00:35:00.181 : :12 – 00:35:00 – fr:Château de Leondegrance en état de siège – en:Leondegrance’s Castle Under Siege

00:40:07.113 : :13 – 00:40:07 – fr:Le Roi reconnu – en:The Acknowledged King

00:42:06.649 : :14 – 00:42:06 – fr:Cette folie appelée amour – en:This Lunacy Called Love

00:45:48.078 : :15 – 00:45:48 – fr:Arthur et Lancelot – en:Arthur and Lancelot

00:50:46.376 : :16 – 00:50:46 – fr:La Dame du Lac – en:The Lady of the Lake

00:54:48.576 : :17 – 00:54:48 – fr:La Communauté de la Table Ronde – en:The Fellowship of the Round Table

00:57:36.453 : :18 – 00:57:36 – fr:Une escorte et un vœu d’amour – en:An Escort and a Love Vow

00:59:55.883 : :19 – 00:59:55 – fr:Le mariage, Morgana et Merlin Spar – en:The Wedding, Morgana and Merlin Spar

01:03:23.966 : :20 – 01:03:23 – fr:Lancelot rencontre Perceval – en:Lancelot Meets Perceval

01:05:38.559 : :21 – 01:05:38 – fr:La cour de Camelot – en:The Court of Camelot

01:08:17.885 : :22 – 01:08:17 – fr:L’honneur de la Reine contesté – en:The Queen’s Honor Challenged

01:13:06.924 : :23 – 01:13:06 – fr:Le rêve de Lancelot – en:Lancelot’s Dream

01:15:01.997 : :24 – 01:15:01 – fr:Le duel de Lancelot et Gauvain – en:Lancelot Duels Gawain

01:20:18.480 : :25 – 01:20:18 – fr:Mais un Roi devrait avoir peur – en:But a King Should Be Afraid

01:22:01.374 : :26 – 01:22:01 – fr:La vérité avant tout – en:Truth Above All

01:24:44.370 : :27 – 01:24:44 – fr:Le temps d’Arthur – en:Arthur’s Time

01:26:02.198 : :28 – 01:26:02 – fr:Les cavernes de la Connaissance – en:The Caverns of Knowledge

01:29:47.507 : :29 – 01:29:47 – fr:Le charme de la fabrication – en:The Charm of Making

01:32:09.941 : :30 – 01:32:09 – fr:Mordred conçu et né – en:Mordred Conceived and Born

01:34:51.811 : :31 – 01:34:51 – fr:Quête du Graal – en:Quest for the Grail

01:45:11.305 : :32 – 01:45:11 – fr:Mordred mène une révolte – en:Mordred Leads a Revolt

01:47:31.862 : :33 – 01:47:31 – fr:La mort d’Urien – en:The Death of Uryens

01:50:23.533 : :34 – 01:50:23 – fr:Perceval rencontre Lancelot – en:Perceval Meets Lancelot

01:51:52.706 : :35 – 01:51:52 – fr:Le secret du Graal – en:The Secret of the Grail

01:54:01.709 : :36 – 01:54:01 – fr:Perceval rallie Arthur – en:Perceval Rallies Arthur

01:56:54.632 : :37 – 01:56:54 – fr:Réunis avec Guenièvre et Excalibur – en:Reunited with Guenevere and Excalibur

01:59:56.355 : :38 – 01:59:56 – fr:Le pays des Rêves – en:The Land of Dreams

02:02:56.786 : :39 – 02:02:56 – fr:La mort de morgana – en:The Death of Morgana

02:07:33.771 : :40 – 02:07:33 – fr:La bataille – en:The Battle

02:09:41.857 : :41 – 02:09:41 – fr:Arthur et Lancelot – en:Arthur and Lancelot

02:12:16.386 : :42 – 02:12:16 – fr:Embrassons-nous enfin – en:Let Us Embrace at Last

02:14:20.802 : :43 – 02:14:20 – fr:Excalibur récupéré – en:Excalibur Reclaimed

02:17:03.006 : :44 – 02:17:03 – fr:Le voyage d’Arthur – en:Arthur’s Journey

02:17:32.661 : :45 – 02:17:32 – fr:Générique – en:End Credits

Excalibur 1981 BR AC3 VFF ENGDownload Torrent Magnet

#Excalibur #AC3 #VFF #ENG