Ex Machina 2015 Bonus BR EAC3 Full Torrent Magnet Download

Download Torrent Ex Machina 2015 Bonus BR EAC3 Movie Full in HD Result. Movie Ex Machina 2015 Bonus BR EAC3 Torrent Download full. Movie Ex Machina 2015 Bonus BR EAC3 torrent Magnet Download Full. Ex Machina 2015 Bonus BR EAC3 Full Movie Torrent Download And Magnet Download For your PC And Mobiles. Latest Movie Ex Machina 2015 Bonus BR EAC3 Download Link In Bottom.

Torrent And Magnet Links Below

______________________________________________________________________________________________________________
Ex Machina 2015
Bluray · 1080p x265 10bits · DD+ 5.1 VFF ENG
More Bonus
¯¯¯¯¯¯¯¯¯¯¯¯¯¯¯¯¯¯¯¯¯¯¯¯¯¯¯¯¯¯¯¯¯¯¯¯¯¯¯¯¯¯¯¯¯¯¯¯¯¯¯¯¯¯¯¯¯¯¯¯¯¯¯¯¯¯¯¯¯¯¯¯¯¯¯¯¯¯¯¯

Year : 2015

Country : United Kingdom, United States

Original, French and English Title : Ex Machina

Director : Alex Garland
Music from : Geoff Barrow, Ben Salisbury

Acteurs : Domhnall Gleeson, Alicia Vikander, Oscar Isaac, Sonoya Mizuno

Genre : CyberPunk, Sci-Fi, Thriller, Drama

Certificate : Scenes, comments, or images may offend viewers’ sensibilities
Budget : 15,000,000 $ · Recipe : 40 497 510 $ · ratio : 270 %

Link : Allociné 3,9 /5 · IMDB 7,7 /10 · TMDB 76 % · SensCritique 7,2 /10 · Wiki · Bande Annonce

French Plot
À 26 ans, Caleb est un des plus brillants codeurs que compte BlueBook , plus important moteur de recherche Internet au monde. À ce titre, il remporte un séjour d’une semaine dans la résidence du grand patron à la montagne. Mais quand Caleb arrive dans la demeure isolée, il découvre qu’il va devoir participer à une expérience troublante : interagir avec le représentant d’une nouvelle intelligence artificielle apparaissant sous les traits d’une très jolie femme robot prénommée Ava .

Bonus
Making of 1 2 mn – 9,12 Mib – 1920×1080 HEVC 10Bits – VOSTFR – 1b1123db
Making of 2 3 mn – 15,60 Mib – 1920×1080 HEVC 10Bits – VOSTFR – b43895e9
Making of 3 2 mn – 13,40 Mib – 1920×1080 HEVC 10Bits – VOSTFR – fe4f6fb4
Making of 4 3 mn – 13,60 Mib – 1920×1080 HEVC 10Bits – VOSTFR – 122797e1
4 bonus, total 51,72 Mib 11 mn


If you enjoy and wish to support, please stay in seeding

Technical Details
¯¯¯¯¯¯¯¯¯¯¯¯¯¯¯¯¯¯¯¯¯¯¯¯¯¯¯¯¯¯¯¯¯¯¯¯¯¯¯¯¯¯¯¯¯¯¯¯¯¯¯¯¯¯¯¯¯¯¯¯¯¯¯¯¯¯¯¯¯¯¯¯¯¯¯¯¯¯¯¯¯¯¯¯¯¯¯¯¯¯¯¯¯¯¯¯¯¯¯¯
Media
Matroska 3,72 Gio 1 h48 mn 4929 Kbps, Total 3,77 Gio 1 h59 mn
Video
HEVC/H265 1920 x804 @23.976 [email protected]@Main 10 bits 4009 Kbps VerySlow
Audio
True French 5.1 EAC3 448 Kbps 48KHz 16bits

English (OV) 5.1 EAC3 448 Kbps 48KHz 16bits

Subtitles
True French forced SRT
True French full SRT
True French forced PGS
True French full PGS
English full SDH PGS
Chapters
International

Screenshot

Origin
Bluray : Video AVC 1080p 32154 Kbps, VFF 5.1 DTS 768 Kbps, Anglais 5.1 DTS-HDMA 3335 Kbps

NFO
¯¯¯¯¯¯¯¯¯¯¯¯¯¯¯¯¯¯¯¯¯¯¯¯¯¯¯¯¯¯¯¯¯¯¯¯¯¯¯¯¯¯¯¯¯¯¯¯¯¯¯¯¯¯¯¯¯¯¯¯¯¯¯¯¯¯¯¯¯¯¯¯¯¯¯¯¯¯¯¯¯¯¯¯¯¯¯¯¯¯¯¯¯¯¯¯¯¯¯¯

General
Format : Matroska
Format version : Version 4 / Version 2

File size : 3.72 GiB
Duration : 1 h 48 min

Overall bit rate : 4 929 kb/s

Movie name : Ex Machina 2015 de Alex Garland avec Domhnall Gleeson, Alicia Vikander, Oscar Isaac, Sonoya Mizuno. Heurter la sensibilité (allocine=219931,imdb=tt0470752) T0M
Encoded date : UTC 2018-04-10 14:37:37

Writing application : mkvmerge v8.0.0 (‘Til The Day That I Die’) 64bit

Writing library : libebml v1.3.1 + libmatroska v1.4.2

Cover : Yes

Attachments : Cover.jpg / Cover2.jpg / Plaquette.jpg / Poster.jpg / Poster2.jpg / Poster3.jpg / Poster4.jpg

Video
ID : 1

Format : HEVC
Format/Info : High Efficiency Video Coding

Format profile : Main [email protected]@Main

Codec ID : V_MPEGH/ISO/HEVC

Duration : 1 h 48 min

Bit rate : 4 009 kb/s

Width : 1 920 pixels

Height : 804 pixels

Display aspect ratio : 2.40:1

Frame rate mode : Constant

Frame rate : 23.976 (24000/1001) FPS

Color space : YUV

Chroma subsampling : 4:2:0

Bit depth : 10 bits

Bits/(Pixel*Frame) : 0.108

Stream size : 3.02 GiB (81%)

Title : Video HEVC 1920×804 @23.976 x265 [email protected]@Main 10bits veryslow 1506mn
Writing library : x265 1.9:[Windows][GCC 4.9.2][64 bit] 10bit

Encoding settings : wpp / ctu=64 / min-cu-size=8 / max-tu-size=32 / tu-intra-depth=3 / tu-inter-depth=3 / me=3 / subme=4 / merange=57 / rect / amp / max-merge=4 / temporal-mvp / no-early-skip / rdpenalty=0 / no-tskip / no-tskip-fast / strong-intra-smoothing / no-lossless / no-cu-lossless / no-constrained-intra / no-fast-intra / open-gop / no-temporal-layers / interlace=0 / keyint=240 / min-keyint=24 / scenecut=40 / rc-lookahead=40 / lookahead-slices=0 / bframes=8 / bframe-bias=0 / b-adapt=2 / ref=5 / limit-refs=1 / limit-modes / weightp / weightb / aq-mode=1 / qg-size=32 / aq-strength=1.00 / cbqpoffs=0 / crqpoffs=0 / rd=6 / psy-rd=2.00 / rdoq-level=2 / psy-rdoq=1.00 / signhide / deblock / sao / no-sao-non-deblock / b-pyramid / cutree / no-intra-refresh / rc=crf / crf=15.9 / qcomp=0.60 / qpmin=0 / qpmax=51 / qpstep=4 / ipratio=1.40 / pbratio=1.30

Default : Yes

Forced : No

Color range : Limited

Color primaries : BT.709

Transfer characteristics : BT.709

Matrix coefficients : BT.709

Audio #1
ID : 2

Format : E-AC-3
Format/Info : Enhanced Audio Coding 3

Codec ID : A_EAC3

Duration : 1 h 48 min

Bit rate mode : Constant

Bit rate : 448 kb/s

Channel(s) : 6 channels

Channel positions : Front: L C R, Side: L R, LFE

Sampling rate : 48.0 kHz

Frame rate : 187.500 FPS (256 SPF)

Compression mode : Lossy

Delay relative to video : -78 ms

Stream size : 346 MiB (9%)

Title : Français 5.1 EAC3 448kbps 48khz 16bits
Language : French
Service kind : Complete Main

Default : Yes

Forced : No

Audio #2
ID : 3

Format : E-AC-3
Format/Info : Enhanced Audio Coding 3

Codec ID : A_EAC3

Duration : 1 h 48 min

Bit rate mode : Constant

Bit rate : 448 kb/s

Channel(s) : 6 channels

Channel positions : Front: L C R, Side: L R, LFE

Sampling rate : 48.0 kHz

Frame rate : 187.500 FPS (256 SPF)

Compression mode : Lossy

Delay relative to video : -78 ms

Stream size : 346 MiB (9%)

Title : English 5.1 EAC3 448kbps 48khz 16bits
Language : English
Service kind : Complete Main

Default : No

Forced : No

Text #1
ID : 4

Format : UTF-8
Codec ID : S_TEXT/UTF8

Codec ID/Info : UTF-8 Plain Text

Duration : 1 h 47 min

Bit rate : 0 b/s

Count of elements : 12

Stream size : 356 Bytes (0%)

Title : Français forcé (Passages)
Language : French
Default : Yes

Forced : Yes

Text #2
ID : 5

Format : UTF-8
Codec ID : S_TEXT/UTF8

Codec ID/Info : UTF-8 Plain Text

Duration : 1 h 47 min

Bit rate : 38 b/s

Count of elements : 1006

Stream size : 30.8 KiB (0%)

Title : Français complet (Tous le film)
Language : French
Default : No

Forced : No

Text #3
ID : 6

Format : PGS
Muxing mode : zlib

Codec ID : S_HDMV/PGS

Codec ID/Info : Picture based subtitle format used on BDs/HD-DVDs

Duration : 1 h 46 min

Bit rate : 58 b/s

Count of elements : 22

Stream size : 46.0 KiB (0%)

Title : Français forcé (Passages) PGS
Language : French
Default : No

Forced : No

Text #4
ID : 7

Format : PGS
Muxing mode : zlib

Codec ID : S_HDMV/PGS

Codec ID/Info : Picture based subtitle format used on BDs/HD-DVDs

Duration : 1 h 46 min

Bit rate : 7 125 b/s

Count of elements : 2010

Stream size : 5.44 MiB (0%)

Title : Français complet (Tous le film) PGS
Language : French
Default : No

Forced : No

Text #5
ID : 8

Format : PGS
Muxing mode : zlib

Codec ID : S_HDMV/PGS

Codec ID/Info : Picture based subtitle format used on BDs/HD-DVDs

Duration : 1 h 38 min

Bit rate : 10.0 kb/s

Count of elements : 2497

Stream size : 7.06 MiB (0%)

Title : English full SDH PGS
Language : English
Default : No

Forced : No

Menu
00:00:00.000 : :01 – 00:00:00

00:04:34.941 : :02 – 00:04:34

00:11:16.634 : :03 – 00:11:16

00:15:08.157 : :04 – 00:15:08

00:23:38.750 : :05 – 00:23:38

00:31:57.999 : :06 – 00:31:57

00:36:05.163 : :07 – 00:36:05

00:40:26.757 : :08 – 00:40:26

00:45:56.378 : :09 – 00:45:56

00:53:28.955 : :10 – 00:53:28

01:00:26.080 : :11 – 01:00:26

01:04:01.254 : :12 – 01:04:01

01:07:19.076 : :13 – 01:07:19

01:13:22.022 : :14 – 01:13:22

01:16:56.111 : :15 – 01:16:56

01:21:36.516 : :16 – 01:21:36

01:27:36.834 : :17 – 01:27:36

01:32:54.151 : :18 – 01:32:54

01:38:51.008 : :19 – 01:38:51

01:42:26.932 : :20 – 01:42:26

Ex Machina 2015 Bonus BR EAC3Download Torrent Magnet

#Machina #Bonus #EAC3