Event Horizon 1997 Bonus BR E Full Torrent Magnet Download

Download Torrent Event Horizon 1997 Bonus BR E Movie Full in HD Result. Movie Event Horizon 1997 Bonus BR E Torrent Download full. Movie Event Horizon 1997 Bonus BR E torrent Magnet Download Full. Event Horizon 1997 Bonus BR E Full Movie Torrent Download And Magnet Download For your PC And Mobiles. Latest Movie Event Horizon 1997 Bonus BR E Download Link In Bottom.

Torrent And Magnet Links Below

______________________________________________________________________________________________________________
Event Horizon 1997
Bluray · 1080p x265 10bits · DD+ 5.1 VFF ENG
More Bonus
¯¯¯¯¯¯¯¯¯¯¯¯¯¯¯¯¯¯¯¯¯¯¯¯¯¯¯¯¯¯¯¯¯¯¯¯¯¯¯¯¯¯¯¯¯¯¯¯¯¯¯¯¯¯¯¯¯¯¯¯¯¯¯¯¯¯¯¯¯¯¯¯¯¯¯¯¯¯¯¯

Year : 1997

Country : United States, United Kingdom

Original and English Title : Event Horizon

French Title : Event Horizon – Le vaisseau de l’au-delà

Director : Paul W.S. Anderson
Music from : Michael Kamen

Acteurs : Laurence Fishburne, Sam Neill, Kathleen Quinlan, Joely Richardson, Richard T. Jones, Jack Noseworthy, Jason Isaacs

Sean Pertwee

Genre : Sci-Fi, Thriller, Horror, Fantasy

Certificate : Not recommended for children under 12 years old
Budget : 70 000 000 $ · Recipe : 47 173 242 $ · ratio : 67 %

Link : Allociné 2,7 /5 · IMDB 6,7 /10 · TMDB 65 % · SensCritique 5,9 /10 · Wiki · Bande Annonce

French Plot
2047 . Le vaisseau de sauvetage spatial Lewis & Clark s’apprêtait à regagner sa base quand l’équipage reçoit l’ordre de gagner la station Daylight pour embarquer le physicien William Weir , avec lequel il doit repartir en direction de Neptune , où est réapparu l’Event horizon un vaisseau au moteur interplanétaire disparu corps et biens 7 ans auparavant.

Bonus
Bluray Looping 35 s – 1,37 Mib – 1920×1080 HEVC 10Bits – MUET – 71055a20
Bluray Opening 35 s – 1,37 Mib – 1920×1080 HEVC 10Bits – MUET – 8de70ce4
Making of Part 1 1 h43 mn – 379,0 Mib – 720×480 HEVC 10Bits – VOSTFR – 880fe7b0
Making of Part 2 8 mn – 42,20 Mib – 720×480 HEVC 10Bits – VOSTFR – 5bdf3cb1
Making of Part 3 10 mn – 104,0 Mib – 720×480 HEVC 10Bits – VOSTFR – 55c3d435
Making of Part 4 2 mn – 18,60 Mib – 720×480 HEVC 10Bits – VOSTFR – 19fea8a7
Strotyboard 1 3 mn – 19,90 Mib – 720×480 HEVC 10Bits – VOSTFR – 6ff52c10
Strotyboard 2 2 mn – 12,20 Mib – 720×480 HEVC 10Bits – VOSTFR – 803dc0d8
Teaser 1 mn – 6,81 Mib – 720×480 HEVC 10Bits – VO – 936fa2d5
9 bonus, total 585,4 Mib 2 h13 mn


If you enjoy and wish to support, please stay in seeding

Technical Details
¯¯¯¯¯¯¯¯¯¯¯¯¯¯¯¯¯¯¯¯¯¯¯¯¯¯¯¯¯¯¯¯¯¯¯¯¯¯¯¯¯¯¯¯¯¯¯¯¯¯¯¯¯¯¯¯¯¯¯¯¯¯¯¯¯¯¯¯¯¯¯¯¯¯¯¯¯¯¯¯¯¯¯¯¯¯¯¯¯¯¯¯¯¯¯¯¯¯¯¯
Media
Matroska 3,84 Gio 1 h35 mn 5737 Kbps, Total 4,41 Gio 3 h48 mn
Video
HEVC/H265 1920 x820 @23.976 [email protected]@Main 10 bits 4794 Kbps VerySlow qp25,87
Audio
True French 5.1 EAC3 448 Kbps 48KHz 16bits

English (OV) 5.1 EAC3 448 Kbps 48KHz 16bits

Subtitles
True French forced SRT
True French full SRT
True French forced PGS
True French full PGS
True French Commentary by Jeremy Bolt and Paul Anderson PGS
English full PGS
English Commentary by Jeremy Bolt and Paul Anderson PGS
Chapters
International, True French, English

Screenshot

Origin
Bluray : Video AVC 1080p 37171 Kbps, VFF 5.1 AC3 640 Kbps, Anglais 5.1 TrueHD 3452 Kbps

NFO
¯¯¯¯¯¯¯¯¯¯¯¯¯¯¯¯¯¯¯¯¯¯¯¯¯¯¯¯¯¯¯¯¯¯¯¯¯¯¯¯¯¯¯¯¯¯¯¯¯¯¯¯¯¯¯¯¯¯¯¯¯¯¯¯¯¯¯¯¯¯¯¯¯¯¯¯¯¯¯¯¯¯¯¯¯¯¯¯¯¯¯¯¯¯¯¯¯¯¯¯

General
Format : Matroska
Format version : Version 4

File size : 3.84 GiB
Duration : 1 h 35 min

Overall bit rate : 5 737 kb/s

Movie name : Event Horizon – Le vaisseau de l’au-delà (Event Horizon) 1997 de Paul W.S. Anderson avec Laurence Fishburne, Sam Neill, Kathleen Quinlan, Joely Richardson, Richard T. Jones, Jack Noseworthy, Jason Isaacs, Sean Pertwee. -12 ans (allocine=17491,imdb=tt0119081) T0M
Encoded date : UTC 2019-01-19 22:25:05

Writing application : mkvmerge v8.0.0 (‘Til The Day That I Die’) 64bit

Writing library : libebml v1.3.1 + libmatroska v1.4.2

Cover : Yes

Attachments : Cover.jpg / Poster.jpg

Video
ID : 1

Format : HEVC
Format/Info : High Efficiency Video Coding

Format profile : Main [email protected]@Main

Codec ID : V_MPEGH/ISO/HEVC

Duration : 1 h 35 min

Bit rate : 4 794 kb/s

Width : 1 920 pixels

Height : 820 pixels

Display aspect ratio : 2.35:1

Frame rate mode : Constant

Frame rate : 23.976 (24000/1001) FPS

Color space : YUV

Chroma subsampling : 4:2:0

Bit depth : 10 bits

Bits/(Pixel*Frame) : 0.127

Stream size : 3.21 GiB (84%)

Title : Video HEVC 1920×820 @23.976 x265 [email protected]@Main 10bits 4800kbps 2pass veryslow 1878mn
Writing library : x265 2.6:[Windows][GCC 7.3.0][64 bit] 10bit

Encoding settings : cpuid=1173503 / frame-threads=3 / numa-pools=8 / wpp / no-pmode / no-pme / no-psnr / no-ssim / log-level=2 / input-csp=1 / input-res=1920×820 / interlace=0 / total-frames=0 / level-idc=0 / high-tier=1 / uhd-bd=0 / ref=5 / no-allow-non-conformance / no-repeat-headers / annexb / no-aud / no-hrd / info / hash=0 / no-temporal-layers / open-gop / min-keyint=24 / keyint=240 / bframes=8 / b-adapt=2 / b-pyramid / bframe-bias=0 / rc-lookahead=120 / lookahead-slices=0 / scenecut=40 / no-intra-refresh / ctu=64 / min-cu-size=8 / rect / amp / max-tu-size=32 / tu-inter-depth=3 / tu-intra-depth=3 / limit-tu=4 / rdoq-level=2 / dynamic-rd=0.00 / no-ssim-rd / signhide / no-tskip / nr-intra=0 / nr-inter=0 / no-constrained-intra / strong-intra-smoothing / max-merge=4 / limit-refs=1 / limit-modes / me=3 / subme=4 / merange=57 / temporal-mvp / weightp / weightb / no-analyze-src-pics / deblock=0:0 / sao / no-sao-non-deblock / rd=6 / no-early-skip / rskip / no-fast-intra / no-tskip-fast / no-cu-lossless / b-intra / no-splitrd-skip / rdpenalty=0 / psy-rd=2.00 / psy-rdoq=1.00 / no-rd-refine / analysis-reuse-mode=0 / no-lossless / cbqpoffs=0 / crqpoffs=0 / rc=abr / bitrate=4800 / qcomp=0.60 / qpstep=4 / stats-write=0 / stats-Read=2 / cplxblur=20.0 / qblur=0.5 / ipratio=1.40 / pbratio=1.30 / aq-mode=1 / aq-strength=1.00 / cutree / zone-count=0 / no-strict-cbr / qg-size=32 / no-rc-grain / qpmax=69 / qpmin=0 / no-const-vbv / sar=1 / overscan=0 / videoformat=5 / range=0 / colorprim=1 / transfer=1 / colormatrix=1 / chromaloc=0 / display-window=0 / max-cll=0,0 / min-luma=0 / max-luma=1023 / log2-max-poc-lsb=8 / vui-timing-info / vui-hrd-info / slices=1 / no-opt-qp-pps / no-opt-ref-list-length-pps / no-multi-pass-opt-rps / scenecut-bias=0.05 / no-opt-cu-delta-qp / no-aq-motion / no-hdr / no-hdr-opt / no-dhdr10-opt / analysis-reuse-level=5 / scale-factor=0 / refine-intra=0 / refine-inter=0 / refine-mv=0 / no-limit-sao / ctu-info=0 / no-lowpass-dct / refine-mv-type=0 / copy-pic=1

Default : Yes

Forced : No

Color range : Limited

Color primaries : BT.709

Transfer characteristics : BT.709

Matrix coefficients : BT.709

Audio #1
ID : 2

Format : E-AC-3
Format/Info : Enhanced AC-3

Commercial name : Dolby Digital Plus

Codec ID : A_EAC3

Duration : 1 h 35 min

Bit rate mode : Constant

Bit rate : 448 kb/s

Channel(s) : 6 channels

Channel layout : L R C LFE Ls Rs

Sampling rate : 48.0 kHz

Frame rate : 31.250 FPS (1536 SPF)

Compression mode : Lossy

Delay relative to video : 5 ms

Stream size : 307 MiB (8%)

Title : Français 5.1 EAC3 448kbps 48khz 16bits
Language : French
Service kind : Complete Main

Default : Yes

Forced : No

Audio #2
ID : 3

Format : E-AC-3
Format/Info : Enhanced AC-3

Commercial name : Dolby Digital Plus

Codec ID : A_EAC3

Duration : 1 h 35 min

Bit rate mode : Constant

Bit rate : 448 kb/s

Channel(s) : 6 channels

Channel layout : L R C LFE Ls Rs

Sampling rate : 48.0 kHz

Frame rate : 31.250 FPS (1536 SPF)

Compression mode : Lossy

Delay relative to video : 5 ms

Stream size : 307 MiB (8%)

Title : English 5.1 EAC3 448kbps 48khz 16bits
Language : English
Service kind : Complete Main

Default : No

Forced : No

Text #1
ID : 4

Format : UTF-8
Codec ID : S_TEXT/UTF8

Codec ID/Info : UTF-8 Plain Text

Duration : 1 h 35 min

Bit rate : 1 b/s

Count of elements : 21

Stream size : 920 Bytes (0%)

Title : Français forcé (Passages)
Language : French
Default : Yes

Forced : Yes

Text #2
ID : 5

Format : UTF-8
Codec ID : S_TEXT/UTF8

Codec ID/Info : UTF-8 Plain Text

Duration : 1 h 35 min

Bit rate : 45 b/s

Count of elements : 1045

Stream size : 31.8 KiB (0%)

Title : Français complet (Tous le film)
Language : French
Default : No

Forced : No

Text #3
ID : 6

Format : PGS
Muxing mode : zlib

Codec ID : S_HDMV/PGS

Codec ID/Info : Picture based subtitle format used on BDs/HD-DVDs

Duration : 1 h 28 min

Bit rate : 167 b/s

Count of elements : 30

Stream size : 109 KiB (0%)

Title : Français forcé (Passages) PGS
Language : French
Default : No

Forced : No

Text #4
ID : 7

Format : PGS
Muxing mode : zlib

Codec ID : S_HDMV/PGS

Codec ID/Info : Picture based subtitle format used on BDs/HD-DVDs

Duration : 1 h 35 min

Bit rate : 8 329 b/s

Count of elements : 2086

Stream size : 5.67 MiB (0%)

Title : Français complet (Tous le film) PGS
Language : French
Default : No

Forced : No

Text #5
ID : 8

Format : PGS
Muxing mode : zlib

Codec ID : S_HDMV/PGS

Codec ID/Info : Picture based subtitle format used on BDs/HD-DVDs

Duration : 1 h 35 min

Bit rate : 11.5 kb/s

Count of elements : 2376

Stream size : 7.90 MiB (0%)

Title : Français commentaire de Jeremy Bolt et Paul Anderson PGS
Language : French
Default : No

Forced : No

Text #6
ID : 9

Format : PGS
Muxing mode : zlib

Codec ID : S_HDMV/PGS

Codec ID/Info : Picture based subtitle format used on BDs/HD-DVDs

Duration : 1 h 26 min

Bit rate : 10.1 kb/s

Count of elements : 2044

Stream size : 6.29 MiB (0%)

Title : English full (All the movie) PGS
Language : English
Default : No

Forced : No

Text #7
ID : 10

Format : PGS
Muxing mode : zlib

Codec ID : S_HDMV/PGS

Codec ID/Info : Picture based subtitle format used on BDs/HD-DVDs

Duration : 1 h 32 min

Bit rate : 13.7 kb/s

Count of elements : 2370

Stream size : 9.08 MiB (0%)

Title : English comment by Jeremy Bolt and Paul Anderson PGS
Language : English
Default : No

Forced : No

Menu
00:00:00.000 : :01 – 00:00:00 – fr:Daylight Station – en:Daylight Station

00:05:41.007 : :02 – 00:05:41 – fr:Le Lewis et Clark – en:The Lewis and Clark

00:08:26.964 : :03 – 00:08:26 – fr:J’attends – en:I’m Waiting

00:12:11.981 : :04 – 00:12:11 – fr:Une transmission unique – en:A Single Transmission

00:18:38.951 : :05 – 00:18:38 – fr:L’Event Horizon – en:The Event Horizon

00:23:19.731 : :06 – 00:23:19 – fr:Une tombe – en:A Tomb

00:29:05.785 : :07 – 00:29:05 – fr:Le cœur du navire – en:The Heart of the Ship

00:34:01.080 : :08 – 00:34:01 – fr:La passerelle – en:The Gateway

00:39:23.319 : :09 – 00:39:23 – fr:L’obscurité – en:The Dark

00:45:08.622 : :10 – 00:45:08 – fr:Hallucinations – en:Hallucinations

00:51:09.608 : :11 – 00:51:09 – fr:Ouvre la porte – en:Open the Door

00:58:17.702 : :12 – 00:58:17 – fr:Erreur dans la traduction – en:Mistake in the Translation

01:04:37.957 : :13 – 01:04:37 – fr:Une choses merveilleuses à vous montrer – en:Wonderful Things to Show You

01:09:29.957 : :14 – 01:09:29 – fr:Dr. Weir – en:Dr. Weir

01:15:05.167 : :15 – 01:15:05 – fr:Elle n’est pas belle ? – en:Isn’t She Beautiful ?

01:22:20.560 : :16 – 01:22:20 – fr:Laisse moi te montrer – en:Let Me Show You

01:29:34.952 : :17 – 01:29:34 – fr:Les secours – en:Rescue

01:31:11.820 : :18 – 01:31:11 – fr:Générique – en:Credits

Event Horizon 1997 Bonus BR EDownload Torrent Magnet

#Event #Horizon #Bonus