Equilibrium 2002 BR EAC3 VFF Full Torrent Magnet Download

Download Torrent Equilibrium 2002 BR EAC3 VFF Movie Full in HD Result. Movie Equilibrium 2002 BR EAC3 VFF Torrent Download full. Movie Equilibrium 2002 BR EAC3 VFF torrent Magnet Download Full. Equilibrium 2002 BR EAC3 VFF Full Movie Torrent Download And Magnet Download For your PC And Mobiles. Latest Movie Equilibrium 2002 BR EAC3 VFF Download Link In Bottom.

Torrent And Magnet Links Below

______________________________________________________________________________________________________________
Equilibrium 2002
Bluray · 1080p x265 10bits · DD+ 5.1 VFF VFQ ENG
¯¯¯¯¯¯¯¯¯¯¯¯¯¯¯¯¯¯¯¯¯¯¯¯¯¯¯¯¯¯¯¯¯¯¯¯¯¯¯¯¯¯¯¯¯¯¯¯¯¯¯¯¯¯¯¯¯¯¯¯¯¯¯¯¯¯¯¯¯¯¯¯¯¯¯¯¯¯¯¯

Year : 2002

Country : United States

Original, French and English Title : Equilibrium

Director : Kurt Wimmer
Music from : Klaus Badelt

Acteurs : Christian Bale, Emily Watson, Taye Diggs, Angus Macfadyen, Sean Bean, Sean Pertwee, Matthew Harbour, William Fichtner

Genre : Sci-Fi, Action, Crime, Thriller

Certificate : Not recommended for children under 12 years old
Budget : 20 000 000 $ · Recipe : 5 359 645 $ · ratio : 27 %

Link : Allociné 3,6 /5 · IMDB 7,5 /10 · TMDB 70 % · SensCritique 6,2 /10 · Wiki · Bande Annonce

French Plot
Dans les années 2070 , dans la citadelle de Libria , les émotions n’existent plus, supprimées par l’absorption quotidienne de Prozium . Cette drogue anti-anxiété rend les gens plus heureux et plus productifs. Les individus ont ainsi accepté de mettre de côté leur liberté pour vivre en harmonie avec leur dirigeant spirituel connu sous le nom de Père. Les personnes qui refusent de prendre leur dose sont considérées comme des rebelles et vivent en retrait de la ville. S’ils sont pris à jeun, c’est la peine de mort assurée. John Preston travaille au service de Père et applique la loi à la lettre. Un jour, celui-ci brise le flacon de sa dose et n’a pas le temps de s’en procurer une de rechange. Il est alors submergé par toute une gamme d’émotions . Victime d’un revirement spirituel qui le confronte à ses supérieurs hiérarchiques, il mène l’enquête sur ce nouvel état de vie.


If you enjoy and wish to support, please stay in seeding

Technical Details
¯¯¯¯¯¯¯¯¯¯¯¯¯¯¯¯¯¯¯¯¯¯¯¯¯¯¯¯¯¯¯¯¯¯¯¯¯¯¯¯¯¯¯¯¯¯¯¯¯¯¯¯¯¯¯¯¯¯¯¯¯¯¯¯¯¯¯¯¯¯¯¯¯¯¯¯¯¯¯¯¯¯¯¯¯¯¯¯¯¯¯¯¯¯¯¯¯¯¯¯
Media
Matroska 3,89 Gio 1 h47 mn 5200 Kbps

Video
HEVC/H265 1920 x820 @23.976 [email protected]@Main 10 bits 4097 Kbps VerySlow qp25,73
Audio
True French 5.1 EAC3 448 Kbps 48KHz 16bits

Quebec French 2.0 AC3 192 Kbps 48KHz 16bits (original)

English (OV) 5.1 EAC3 448 Kbps 48KHz 16bits

Subtitles
True French forced SRT
True French full SRT
True French forced PGS
True French full PGS
English full SDH PGS
Chapters
International, True French, English

Screenshot

Origin
Bluray : Video AVC 1080p 35738 Kbps, VFF 5.1 DTS-HDMA 2283 Kbps, VFQ 2.0 AC3 192 Kbps, Anglais 5.1 DTS-HDMA 2196 Kbps

NFO
¯¯¯¯¯¯¯¯¯¯¯¯¯¯¯¯¯¯¯¯¯¯¯¯¯¯¯¯¯¯¯¯¯¯¯¯¯¯¯¯¯¯¯¯¯¯¯¯¯¯¯¯¯¯¯¯¯¯¯¯¯¯¯¯¯¯¯¯¯¯¯¯¯¯¯¯¯¯¯¯¯¯¯¯¯¯¯¯¯¯¯¯¯¯¯¯¯¯¯¯

General
Format : Matroska
Format version : Version 4

File size : 3.89 GiB
Duration : 1 h 47 min

Overall bit rate : 5 200 kb/s

Movie name : Equilibrium 2002 de Kurt Wimmer avec Christian Bale, Emily Watson, Taye Diggs, Angus Macfadyen, Sean Bean, Sean Pertwee, Matthew Harbour, William Fichtner. -12 ans (allocine=26865,imdb=tt0238380) T0M
Encoded date : UTC 2019-01-25 02:51:18

Writing application : mkvmerge v8.0.0 (‘Til The Day That I Die’) 64bit

Writing library : libebml v1.3.1 + libmatroska v1.4.2

Cover : Yes

Attachments : Cover.jpg

Video
ID : 1

Format : HEVC
Format/Info : High Efficiency Video Coding

Format profile : Main [email protected]@Main

Codec ID : V_MPEGH/ISO/HEVC

Duration : 1 h 47 min

Bit rate : 4 097 kb/s

Width : 1 920 pixels

Height : 820 pixels

Display aspect ratio : 2.35:1

Frame rate mode : Constant

Frame rate : 23.976 (23976/1000) FPS

Original frame rate : 23.976 (24000/1001) FPS

Color space : YUV

Chroma subsampling : 4:2:0

Bit depth : 10 bits

Bits/(Pixel*Frame) : 0.109

Stream size : 3.07 GiB (79%)

Title : Video HEVC 1920×820 @23.976 x265 [email protected]@Main 10bits 4100kbps 2pass veryslow 1968mn
Writing library : x265 2.6:[Windows][GCC 7.3.0][64 bit] 10bit

Encoding settings : cpuid=1173503 / frame-threads=3 / numa-pools=8 / wpp / no-pmode / no-pme / no-psnr / no-ssim / log-level=2 / input-csp=1 / input-res=1920×820 / interlace=0 / total-frames=0 / level-idc=0 / high-tier=1 / uhd-bd=0 / ref=5 / no-allow-non-conformance / no-repeat-headers / annexb / no-aud / no-hrd / info / hash=0 / no-temporal-layers / open-gop / min-keyint=24 / keyint=240 / bframes=8 / b-adapt=2 / b-pyramid / bframe-bias=0 / rc-lookahead=120 / lookahead-slices=0 / scenecut=40 / no-intra-refresh / ctu=64 / min-cu-size=8 / rect / amp / max-tu-size=32 / tu-inter-depth=3 / tu-intra-depth=3 / limit-tu=4 / rdoq-level=2 / dynamic-rd=0.00 / no-ssim-rd / signhide / no-tskip / nr-intra=0 / nr-inter=0 / no-constrained-intra / strong-intra-smoothing / max-merge=4 / limit-refs=1 / limit-modes / me=3 / subme=4 / merange=57 / temporal-mvp / weightp / weightb / no-analyze-src-pics / deblock=0:0 / sao / no-sao-non-deblock / rd=6 / no-early-skip / rskip / no-fast-intra / no-tskip-fast / no-cu-lossless / b-intra / no-splitrd-skip / rdpenalty=0 / psy-rd=2.00 / psy-rdoq=1.00 / no-rd-refine / analysis-reuse-mode=0 / no-lossless / cbqpoffs=0 / crqpoffs=0 / rc=abr / bitrate=4100 / qcomp=0.60 / qpstep=4 / stats-write=0 / stats-Read=2 / cplxblur=20.0 / qblur=0.5 / ipratio=1.40 / pbratio=1.30 / aq-mode=1 / aq-strength=1.00 / cutree / zone-count=0 / no-strict-cbr / qg-size=32 / no-rc-grain / qpmax=69 / qpmin=0 / no-const-vbv / sar=1 / overscan=0 / videoformat=5 / range=0 / colorprim=1 / transfer=1 / colormatrix=1 / chromaloc=0 / display-window=0 / max-cll=0,0 / min-luma=0 / max-luma=1023 / log2-max-poc-lsb=8 / vui-timing-info / vui-hrd-info / slices=1 / no-opt-qp-pps / no-opt-ref-list-length-pps / no-multi-pass-opt-rps / scenecut-bias=0.05 / no-opt-cu-delta-qp / no-aq-motion / no-hdr / no-hdr-opt / no-dhdr10-opt / analysis-reuse-level=5 / scale-factor=0 / refine-intra=0 / refine-inter=0 / refine-mv=0 / no-limit-sao / ctu-info=0 / no-lowpass-dct / refine-mv-type=0 / copy-pic=1

Default : Yes

Forced : No

Color range : Limited

Color primaries : BT.709

Transfer characteristics : BT.709

Matrix coefficients : BT.709

Audio #1
ID : 2

Format : E-AC-3
Format/Info : Enhanced AC-3

Commercial name : Dolby Digital Plus

Codec ID : A_EAC3

Duration : 1 h 47 min

Bit rate mode : Constant

Bit rate : 448 kb/s

Channel(s) : 6 channels

Channel layout : L R C LFE Ls Rs

Sampling rate : 48.0 kHz

Frame rate : 31.250 FPS (1536 SPF)

Compression mode : Lossy

Delay relative to video : 5 ms

Stream size : 344 MiB (9%)

Title : Français 5.1 EAC3 448kbps 48khz 16bits
Language : French
Service kind : Complete Main

Default : Yes

Forced : No

Audio #2
ID : 3

Format : AC-3
Format/Info : Audio Coding 3

Commercial name : Dolby Digital

Codec ID : A_AC3

Duration : 1 h 47 min

Bit rate mode : Constant

Bit rate : 192 kb/s

Channel(s) : 2 channels

Channel layout : L R

Sampling rate : 48.0 kHz

Frame rate : 31.250 FPS (1536 SPF)

Bit depth : 16 bits

Compression mode : Lossy

Delay relative to video : 5 ms

Stream size : 147 MiB (4%)

Title : Québécois 2.0 AC3 192kbps 48khz 16bits (original)
Language : French
Service kind : Complete Main

Default : No

Forced : No

Audio #3
ID : 4

Format : E-AC-3
Format/Info : Enhanced AC-3

Commercial name : Dolby Digital Plus

Codec ID : A_EAC3

Duration : 1 h 47 min

Bit rate mode : Constant

Bit rate : 448 kb/s

Channel(s) : 6 channels

Channel layout : L R C LFE Ls Rs

Sampling rate : 48.0 kHz

Frame rate : 31.250 FPS (1536 SPF)

Compression mode : Lossy

Delay relative to video : 5 ms

Stream size : 344 MiB (9%)

Title : English 5.1 EAC3 448kbps 48khz 16bits
Language : English
Service kind : Complete Main

Default : No

Forced : No

Text #1
ID : 5

Format : UTF-8
Codec ID : S_TEXT/UTF8

Codec ID/Info : UTF-8 Plain Text

Duration : 1 h 47 min

Bit rate : 0 b/s

Count of elements : 22

Stream size : 804 Bytes (0%)

Title : Français forcé (Passages)
Language : French
Default : Yes

Forced : Yes

Text #2
ID : 6

Format : UTF-8
Codec ID : S_TEXT/UTF8

Codec ID/Info : UTF-8 Plain Text

Duration : 1 h 47 min

Bit rate : 29 b/s

Count of elements : 778

Stream size : 23.5 KiB (0%)

Title : Français complet (Tous le film)
Language : French
Default : No

Forced : No

Text #3
ID : 7

Format : PGS
Muxing mode : zlib

Codec ID : S_HDMV/PGS

Codec ID/Info : Picture based subtitle format used on BDs/HD-DVDs

Duration : 26 min 14 s

Bit rate : 56 b/s

Count of elements : 4

Stream size : 10.9 KiB (0%)

Title : Français forcé (Passages) PGS
Language : French
Default : No

Forced : No

Text #4
ID : 8

Format : PGS
Muxing mode : zlib

Codec ID : S_HDMV/PGS

Codec ID/Info : Picture based subtitle format used on BDs/HD-DVDs

Duration : 1 h 40 min

Bit rate : 7 057 b/s

Count of elements : 1550

Stream size : 5.06 MiB (0%)

Title : Français complet (Tous le film) PGS
Language : French
Default : No

Forced : No

Text #5
ID : 9

Format : PGS
Muxing mode : zlib

Codec ID : S_HDMV/PGS

Codec ID/Info : Picture based subtitle format used on BDs/HD-DVDs

Duration : 1 h 38 min

Bit rate : 6 129 b/s

Count of elements : 1446

Stream size : 4.33 MiB (0%)

Title : English full SDH PGS
Language : English
Default : No

Forced : No

Menu
00:00:00.000 : :01 – 00:00:00 – fr:L’inhumanité de l’homme envers l’homme – en:Man’s Inhumanity to Man

00:07:42.211 : :02 – 00:07:42 – fr:Une société insensible – en:An Unfeeling Society

00:15:19.543 : :03 – 00:15:19 – fr:Le clerc prodigue – en:The Prodigal Cleric

00:24:24.254 : :04 – 00:24:24 – fr:Un coût élevé – en:A Heavy Cost

00:33:45.898 : :05 – 00:33:45 – fr:Un nouveau matin – en:A New Morning

00:42:25.334 : :06 – 00:42:25 – fr:Existence et But – en:Existence and Purpose

00:53:53.396 : :07 – 00:53:53 – fr:Éveil des émotions – en:Awakening Emotions

01:03:08.493 : :08 – 01:03:08 – fr:Signes de remords – en:Signs of Remorse

01:11:53.934 : :09 – 01:11:53 – fr:Un Père qui doute ? – en:Doubting Father?

01:19:13.415 : :10 – 01:19:13 – fr:Une grosse erreur – en:A Big Mistake

01:29:28.863 : :11 – 01:29:28 – fr:Il est un transgresseur ! – en:He’s A Sense Offender!

01:40:30.650 : :12 – 01:40:30 – fr:Questions pour Marie – en:Questions for Mary

Equilibrium 2002 BR EAC3 VFF Download Torrent Magnet

#Equilibrium #EAC3 #VFF