Ender’s Game 2013 BR EAC3 VFF Full Torrent Magnet Download

Download Torrent Ender’s Game 2013 BR EAC3 VFF Movie Full in HD Result. Movie Ender’s Game 2013 BR EAC3 VFF Torrent Download full. Movie Ender’s Game 2013 BR EAC3 VFF torrent Magnet Download Full. Ender’s Game 2013 BR EAC3 VFF Full Movie Torrent Download And Magnet Download For your PC And Mobiles. Latest Movie Ender’s Game 2013 BR EAC3 VFF Download Link In Bottom.

Torrent And Magnet Links Below

______________________________________________________________________________________________________________
Ender’s Game 2013
Bluray · 1080p x265 10bits · DD+ 5.1 VFF VFQ ENG
¯¯¯¯¯¯¯¯¯¯¯¯¯¯¯¯¯¯¯¯¯¯¯¯¯¯¯¯¯¯¯¯¯¯¯¯¯¯¯¯¯¯¯¯¯¯¯¯¯¯¯¯¯¯¯¯¯¯¯¯¯¯¯¯¯¯¯¯¯¯¯¯¯¯¯¯¯¯¯¯

Year : 2013

Country : United States

Original and English Title : Ender’s Game

French Title : La Stratégie Ender

Director : Gavin Hood
Music from : Steve Jablonsky

Acteurs : Harrison Ford, Asa Butterfield, Hailee Steinfeld, Viola Davis, Abigail Breslin, Ben Kingsley, Moises Arias, Aramis Knight

Suraj Parthasarathy, Khylin Rhambo, Jimmy ‘Jax’ Pinchak, Conor Carroll, Nonso Anozie, Tony Mirrcandani

Genre : Sci-Fi, War, Action

Certificate : Not recommended for children under 12 years old
Budget : 110 000 000 $ · Recipe : 150 707 250 $ · ratio : 137 %

Link : Allociné 3,5 /5 · IMDB 6,7 /10 · TMDB 66 % · SensCritique 5,7 /10 · Wiki · Bande Annonce

French Plot
Dans un futur proche , une espèce extraterrestre hostile, ont attaqué la Terre. Sans l’héroïsme de Mazer Rackham , le combat aurait été perdu. Vivant dans la crainte de leur retour, le très respecté colonel Graff et les forces militaires terriennes entraînent les meilleurs jeunes esprits pour former des officiers émérites et découvrir dans leurs rangs celui qui pourra contrer la prochaine attaque. Ender Wiggin , un garçon timide mais doté d’une exceptionnelle intelligence tactique, est sélectionné pour rejoindre l’élite. Graff ne tarde pas à le considérer comme le meilleur élément et le plus grand espoir de l’humanité . C’est alors que le jeux devient la guerre…

Adaptation du roman : La Stratégie Ender d’Orson Scott Card


If you enjoy and wish to support, please stay in seeding

Technical Details
¯¯¯¯¯¯¯¯¯¯¯¯¯¯¯¯¯¯¯¯¯¯¯¯¯¯¯¯¯¯¯¯¯¯¯¯¯¯¯¯¯¯¯¯¯¯¯¯¯¯¯¯¯¯¯¯¯¯¯¯¯¯¯¯¯¯¯¯¯¯¯¯¯¯¯¯¯¯¯¯¯¯¯¯¯¯¯¯¯¯¯¯¯¯¯¯¯¯¯¯
Media
Matroska 3,93 Gio 1 h54 mn 4931 Kbps

Video
HEVC/H265 1920 x800 @23.976 [email protected]@Main 10 bits 3545 Kbps VerySlow
Audio
True French 5.1 EAC3 448 Kbps 48KHz 16bits

Quebec French 5.1 EAC3 448 Kbps 48KHz 16bits

English (OV) 5.1 EAC3 448 Kbps 48KHz 16bits

Subtitles
True French forced SRT
True French full SRT
True French forced PGS
True French full PGS
True French Sourds&Malentendants PGS
Quebec French forced SRT, Quebec French full SRT, English full PGS, English full SDH PGS
Chapters
International

Screenshot

Origin
Bluray : Video AVC 1080p 25600 Kbps, VFF 7.1 DTS-HDMA 2617 Kbps, VFQ 5.1 AC3 640 Kbps, Anglais 7.1 DTS-HDMA 4980 Kbps

NFO
¯¯¯¯¯¯¯¯¯¯¯¯¯¯¯¯¯¯¯¯¯¯¯¯¯¯¯¯¯¯¯¯¯¯¯¯¯¯¯¯¯¯¯¯¯¯¯¯¯¯¯¯¯¯¯¯¯¯¯¯¯¯¯¯¯¯¯¯¯¯¯¯¯¯¯¯¯¯¯¯¯¯¯¯¯¯¯¯¯¯¯¯¯¯¯¯¯¯¯¯

General
Format : Matroska
Format version : Version 4 / Version 2

File size : 3.93 GiB
Duration : 1 h 54 min

Overall bit rate : 4 931 kb/s

Movie name : La stratégie Ender (Ender’s Game) 2013 de Gavin Hood avec Harrison Ford, Asa Butterfield, Hailee Steinfeld, Viola Davis, Abigail Breslin, Ben Kingsley, Moises Arias, Aramis Knight, Suraj Parthasarathy, Khylin Rhambo, Jimmy ‘Jax’ Pinchak, Conor Carroll, Nonso Anozie, Tony Mirrcandani. -12 (allocine=45645,imdb=tt1731141) T0M
Encoded date : UTC 2017-10-15 21:49:42

Writing application : mkvmerge v8.0.0 (‘Til The Day That I Die’) 64bit

Writing library : libebml v1.3.1 + libmatroska v1.4.2

Cover : Yes

Attachments : Cover.jpg / Cover2.jpg / Cover3.jpg / Cover4.jpg / Poster.jpg

Video
ID : 1

Format : HEVC
Format/Info : High Efficiency Video Coding

Format profile : Main [email protected]@Main

Codec ID : V_MPEGH/ISO/HEVC

Duration : 1 h 54 min

Bit rate : 3 545 kb/s

Width : 1 920 pixels

Height : 800 pixels

Display aspect ratio : 2.40:1

Frame rate mode : Constant

Frame rate : 23.976 (24000/1001) FPS

Color space : YUV

Chroma subsampling : 4:2:0

Bit depth : 10 bits

Bits/(Pixel*Frame) : 0.096

Stream size : 2.82 GiB (72%)

Title : Video HEVC 1920×1080 @23.976 x265 [email protected]@Main 10bits veryslow 1709mn
Writing library : x265 1.9:[Windows][GCC 4.9.2][64 bit] 10bit

Encoding settings : wpp / ctu=64 / min-cu-size=8 / max-tu-size=32 / tu-intra-depth=3 / tu-inter-depth=3 / me=3 / subme=4 / merange=57 / rect / amp / max-merge=4 / temporal-mvp / no-early-skip / rdpenalty=0 / no-tskip / no-tskip-fast / strong-intra-smoothing / no-lossless / no-cu-lossless / no-constrained-intra / no-fast-intra / open-gop / no-temporal-layers / interlace=0 / keyint=240 / min-keyint=24 / scenecut=40 / rc-lookahead=40 / lookahead-slices=0 / bframes=8 / bframe-bias=0 / b-adapt=2 / ref=5 / limit-refs=1 / limit-modes / weightp / weightb / aq-mode=1 / qg-size=32 / aq-strength=1.00 / cbqpoffs=0 / crqpoffs=0 / rd=6 / psy-rd=2.00 / rdoq-level=2 / psy-rdoq=1.00 / signhide / deblock / sao / no-sao-non-deblock / b-pyramid / cutree / no-intra-refresh / rc=crf / crf=17.5 / qcomp=0.60 / qpmin=0 / qpmax=51 / qpstep=4 / ipratio=1.40 / pbratio=1.30

Default : Yes

Forced : No

Color range : Limited

Color primaries : BT.709

Transfer characteristics : BT.709

Matrix coefficients : BT.709

Audio #1
ID : 2

Format : E-AC-3
Format/Info : Enhanced Audio Coding 3

Format settings, Endianness : Big

Codec ID : A_EAC3

Duration : 1 h 54 min

Bit rate mode : Constant

Bit rate : 448 kb/s

Channel(s) : 6 channels

Channel positions : Front: L C R, Side: L R, LFE

Sampling rate : 48.0 kHz

Frame rate : 187.500 FPS (256 spf)

Compression mode : Lossy

Delay relative to video : -83 ms

Stream size : 366 MiB (9%)

Title : Français 5.1 EAC3 448kbps 48khz 16bits
Language : French
Service kind : Complete Main

Default : Yes

Forced : No

Audio #2
ID : 3

Format : E-AC-3
Format/Info : Enhanced Audio Coding 3

Format settings, Endianness : Big

Codec ID : A_EAC3

Duration : 1 h 53 min

Bit rate mode : Constant

Bit rate : 448 kb/s

Channel(s) : 6 channels

Channel positions : Front: L C R, Side: L R, LFE

Sampling rate : 48.0 kHz

Frame rate : 187.500 FPS (256 spf)

Compression mode : Lossy

Delay relative to video : 14 s 531 ms

Stream size : 365 MiB (9%)

Title : Québécois 5.1 EAC3 448kbps 48khz 16bits
Language : French
Service kind : Complete Main

Default : No

Forced : No

Audio #3
ID : 4

Format : E-AC-3
Format/Info : Enhanced Audio Coding 3

Format settings, Endianness : Big

Codec ID : A_EAC3

Duration : 1 h 54 min

Bit rate mode : Constant

Bit rate : 448 kb/s

Channel(s) : 6 channels

Channel positions : Front: L C R, Side: L R, LFE

Sampling rate : 48.0 kHz

Frame rate : 187.500 FPS (256 spf)

Compression mode : Lossy

Delay relative to video : -83 ms

Stream size : 365 MiB (9%)

Title : English 5.1 EAC3 448kbps 48khz 16bits
Language : English
Service kind : Complete Main

Default : No

Forced : No

Text #1
ID : 5

Format : UTF-8
Codec ID : S_TEXT/UTF8

Codec ID/Info : UTF-8 Plain Text

Duration : 1 h 53 min

Bit rate : 0 b/s

Count of elements : 13

Stream size : 589 Bytes (0%)

Title : Français forcé (Passages)
Language : French
Default : Yes

Forced : No

Text #2
ID : 6

Format : UTF-8
Codec ID : S_TEXT/UTF8

Codec ID/Info : UTF-8 Plain Text

Duration : 1 h 53 min

Bit rate : 45 b/s

Count of elements : 1300

Stream size : 37.8 KiB (0%)

Title : Français complet (Tous le film)
Language : French
Default : No

Forced : No

Text #3
ID : 7

Format : PGS
Muxing mode : zlib

Codec ID : S_HDMV/PGS

Codec ID/Info : Picture based subtitle format used on BDs/HD-DVDs

Duration : 1 h 18 min

Bit rate : 93 b/s

Count of elements : 18

Stream size : 53.6 KiB (0%)

Title : Français forcé (Passages) PGS
Language : French
Default : No

Forced : No

Text #4
ID : 8

Format : PGS
Muxing mode : zlib

Codec ID : S_HDMV/PGS

Codec ID/Info : Picture based subtitle format used on BDs/HD-DVDs

Duration : 1 h 52 min

Bit rate : 6 856 b/s

Count of elements : 2590

Stream size : 5.53 MiB (0%)

Title : Français complet (Tous le film) PGS
Language : French
Default : No

Forced : No

Text #5
ID : 9

Format : PGS
Muxing mode : zlib

Codec ID : S_HDMV/PGS

Codec ID/Info : Picture based subtitle format used on BDs/HD-DVDs

Duration : 1 h 53 min

Bit rate : 7 537 b/s

Count of elements : 3228

Stream size : 6.13 MiB (0%)

Title : Français Sourds&Malentendants PGS
Language : French
Default : No

Forced : No

Text #6
ID : 10

Format : UTF-8
Codec ID : S_TEXT/UTF8

Codec ID/Info : UTF-8 Plain Text

Duration : 1 h 45 min

Bit rate : 0 b/s

Count of elements : 5

Stream size : 279 Bytes (0%)

Title : Québécois forcé (Passages)
Default : No

Forced : No

Text #7
ID : 11

Format : UTF-8
Codec ID : S_TEXT/UTF8

Codec ID/Info : UTF-8 Plain Text

Duration : 1 h 45 min

Bit rate : 68 b/s

Count of elements : 1261

Stream size : 53.1 KiB (0%)

Title : Québécois complet (Tous le film)
Default : No

Forced : No

Text #8
ID : 12

Format : PGS
Muxing mode : zlib

Codec ID : S_HDMV/PGS

Codec ID/Info : Picture based subtitle format used on BDs/HD-DVDs

Duration : 1 h 44 min

Bit rate : 11.1 kb/s

Count of elements : 2940

Stream size : 8.25 MiB (0%)

Title : English full (All the movie) PGS
Language : English
Default : No

Forced : No

Text #9
ID : 13

Format : PGS
Muxing mode : zlib

Codec ID : S_HDMV/PGS

Codec ID/Info : Picture based subtitle format used on BDs/HD-DVDs

Duration : 1 h 44 min

Bit rate : 12.6 kb/s

Count of elements : 3292

Stream size : 9.40 MiB (0%)

Title : English full SDH PGS
Language : English
Default : No

Forced : No

Menu
00:00:00.000 : :01 – 00:00:00

00:03:13.026 : :02 – 00:03:13

00:07:41.961 : :03 – 00:07:41

00:11:30.023 : :04 – 00:11:30

00:16:05.131 : :05 – 00:16:05

00:23:10.055 : :06 – 00:23:10

00:27:16.301 : :07 – 00:27:16

00:34:01.039 : :08 – 00:34:01

00:38:47.825 : :09 – 00:38:47

00:44:29.333 : :10 – 00:44:29

00:49:29.300 : :11 – 00:49:29

00:53:29.706 : :12 – 00:53:29

00:59:45.916 : :13 – 00:59:45

01:04:02.338 : :14 – 01:04:02

01:08:49.625 : :15 – 01:08:49

01:12:58.874 : :16 – 01:12:58

01:17:48.330 : :17 – 01:17:48

01:23:17.826 : :18 – 01:23:17

01:35:50.411 : :19 – 01:35:50

01:40:20.514 : :20 – 01:40:20

01:45:11.972 : :21 – 01:45:11

01:49:04.371 : :22 – 01:49:04

01:55:07.734 : :23 – 01:55:07

02:05:01.828 : :24 – 02:05:01

Ender’s Game 2013 BR EAC3 VFFDownload Torrent Magnet

#Enders #Game #EAC3 #VFF