End.Of.Watch.2012.BRRip.XviD. Full Torrent Magnet Download

Download Torrent End.Of.Watch.2012.BRRip.XviD. Movie Full in HD Result. Movie End.Of.Watch.2012.BRRip.XviD. Torrent Download full. Movie End.Of.Watch.2012.BRRip.XviD. torrent Magnet Download Full. End.Of.Watch.2012.BRRip.XviD. Full Movie Torrent Download And Magnet Download For your PC And Mobiles. Latest Movie End.Of.Watch.2012.BRRip.XviD. Download Link In Bottom.

Torrent And Magnet Links Below

End.Of.Watch.2012.BRRip.XviD.B4ND1T69

Director: David Ayer

Writer: David Ayer

Stars: Jake Gyllenhaal, Michael Peña, Anna Kendrick

Plot/Story:

Shot documentary-style, this film follows the daily grind of two young police officers in LA who are partners and friends, and what happens when they meet criminal forces greater than themselves.

General

Complete name : End.Of.Watch.2012.BRRip.XviD.B4ND1T69.avi

Format : AVI

Format/Info : Audio Video Interleave

File size : 1.32 GiB

Duration : 1 h 48 min

Overall bit rate : 1 741 kb/s

Subtitles : Yes…Hardcoded for non-English parts + file included(HI)

Video

ID : 0

Format : MPEG-4 Visual

Format profile : Advanced [email protected]
Format settings, BVOP : 2

Format settings, QPel : No

Format settings, GMC : No warppoints

Format settings, Matrix : Default (H.263)

Codec ID : XVID

Codec ID/Hint : XviD

Duration : 1 h 48 min

Bit rate : 1 600 kb/s

Width : 720 pixels

Height : 400 pixels

Display aspect ratio : 16:9

Frame rate : 24.000 FPS

Color space : YUV

Chroma subsampling : 4:2:0

Bit depth : 8 bits

Scan type : Progressive

Compression mode : Lossy

Bits/(Pixel*Frame) : 0.231

Stream size : 1.21 GiB (92%)

Writing library : XviD 64

Audio

ID : 1

Format : MPEG Audio

Format version : Version 1

Format profile : Layer 3

Codec ID : 55

Codec ID/Hint : MP3

Duration : 1 h 48 min

Bit rate mode : Constant

Bit rate : 128 kb/s

Channel(s) : 2 channels

Sampling rate : 48.0 kHz

Compression mode : Lossy

Stream size : 99.4 MiB (7%)

Alignment : Aligned on interleaves

Interleave, duration : 24 ms (0.58 video frame)

Screenshots:









Please Seed For As Long As Possible

Or At Least 1:1 Ratio…Thanks

Enjoy Peeps

End.Of.Watch.2012.BRRip.XviD.Download Torrent Magnet

#EndOfWatch2012BRRipXviD