Elysium 2013 Bonus BR VFF ENG Full Torrent Magnet Download

Download Torrent Elysium 2013 Bonus BR VFF ENG Movie Full in HD Result. Movie Elysium 2013 Bonus BR VFF ENG Torrent Download full. Movie Elysium 2013 Bonus BR VFF ENG torrent Magnet Download Full. Elysium 2013 Bonus BR VFF ENG Full Movie Torrent Download And Magnet Download For your PC And Mobiles. Latest Movie Elysium 2013 Bonus BR VFF ENG Download Link In Bottom.

Torrent And Magnet Links Below

______________________________________________________________________________________________________________
Elysium 2013
Bluray · 1080p x265 10bits · DD+ 5.1 VFF ENG
More Bonus
¯¯¯¯¯¯¯¯¯¯¯¯¯¯¯¯¯¯¯¯¯¯¯¯¯¯¯¯¯¯¯¯¯¯¯¯¯¯¯¯¯¯¯¯¯¯¯¯¯¯¯¯¯¯¯¯¯¯¯¯¯¯¯¯¯¯¯¯¯¯¯¯¯¯¯¯¯¯¯¯

Year : 2013

Country : United States

Original, French and English Title : Elysium

Director : Neill Blomkamp
Music from : Ryan Amon

Acteurs : Matt Damon, Jodie Foster, Sharlto Copley, Alice Braga, Diego Luna, Wagner Moura, William Fichtner

Genre : CyberPunk, Sci-Fi, Action, Thriller, Drama

Certificate : Scenes, comments, or images may offend viewers’ sensibilities
Budget : 93 050 117 $ · Recipe : 303 875 890 $ · ratio : 327 %

Link : Allociné 3,4 /5 · IMDB 6,6 /10 · TMDB 64 % · SensCritique 5,7 /10 · Wiki · Bande Annonce

French Plot
A la fin du [/b]XXIe siècle[/b], la terre est rongée pas la maladie, la pollution et la surpopulation. Les terriens les plus fortunés ont fui la planète pour préserver leur mode de vie sur la station spatiale Elysium . Max est un ouvrier gravement irradié qui n’a plus rien à perdre et qui va tous tenter pour avoir accès aux technologies médicales miraculeuses d’Elysium et sauver sa vie…

Bonus
Making of part 1 – Envisioning Elysium 8 mn – 88,80 Mib – 1920×1080 HEVC 10Bits – VOSTFR – bca17456
Making of part 2 – Capturing Elysium 26 mn – 346,0 Mib – 1920×1080 HEVC 10Bits – VOSTFR – 9cc61e08
Making of part 3 – Enhancing Elysium 10 mn – 104,0 Mib – 1920×1080 HEVC 10Bits – VOSTFR – 2a56fb33
Collaboration – Crafting the Performances in Elysium 13 mn – 164,0 Mib – 1920×1080 HEVC 10Bits – VOSTFR – 227711cb
The Technology of 2154 10 mn – 121,0 Mib – 1920×1080 HEVC 10Bits – VOSTFR – cb8521a5
In Support of Story – The Visual Effects of Elysium 10 mn – 119,0 Mib – 1920×1080 HEVC 10Bits – VOSTFR – 53d4e5d2
Engineering Utopia – Creating a Society in the Sky 11 mn – 98,40 Mib – 1920×1080 HEVC 10Bits – VOSTFR – f4a410b2
Deleted Scene – Kruger Wakes Up 1 mn – 14,90 Mib – 1920×1080 HEVC 10Bits – VOSTFR – b1250ae2
Visions of 2154 16 mn – 144,0 Mib – 1920×1080 HEVC 10Bits – MUSIQUE – a82efccb
Bluray Opening Fix 40 s – 3,75 Mib – 1920×1080 HEVC 10Bits – MUSIQUE – 7953794c
10 bonus, total 1,18 Gib 1 h50 mn


If you enjoy and wish to support, please stay in seeding

Technical Details
¯¯¯¯¯¯¯¯¯¯¯¯¯¯¯¯¯¯¯¯¯¯¯¯¯¯¯¯¯¯¯¯¯¯¯¯¯¯¯¯¯¯¯¯¯¯¯¯¯¯¯¯¯¯¯¯¯¯¯¯¯¯¯¯¯¯¯¯¯¯¯¯¯¯¯¯¯¯¯¯¯¯¯¯¯¯¯¯¯¯¯¯¯¯¯¯¯¯¯¯
Media
Matroska 3,84 Gio 1 h49 mn 5018 Kbps, Total 5,02 Gio 3 h39 mn
Video
HEVC/H265 1920 x804 @23.976 [email protected]@Main 10 bits 4090 Kbps VerySlow
Audio
True French 5.1 EAC3 448 Kbps 48KHz 16bits

English (OV) 5.1 EAC3 448 Kbps 48KHz 16bits

Subtitles
True French forced SRT
True French full SRT
True French full PGS
English full PGS
English full SDH PGS
Chapters
International

Screenshot

Origin
Bluray : Video AVC 1080p 25600 Kbps, VFF 5.1 DTS-HDMA 2358 Kbps, Anglais 7.1 DTS-HDMA 2775 Kbps

NFO
¯¯¯¯¯¯¯¯¯¯¯¯¯¯¯¯¯¯¯¯¯¯¯¯¯¯¯¯¯¯¯¯¯¯¯¯¯¯¯¯¯¯¯¯¯¯¯¯¯¯¯¯¯¯¯¯¯¯¯¯¯¯¯¯¯¯¯¯¯¯¯¯¯¯¯¯¯¯¯¯¯¯¯¯¯¯¯¯¯¯¯¯¯¯¯¯¯¯¯¯

General
Complete name : Elysium 2013 BR VFF VO 1080p x265 10Bits T0M.mkv

Format : Matroska
Format version : Version 4

File size : 3.84 GiB
Duration : 1 h 49 min

Overall bit rate : 5 018 kb/s

Movie name : Elysium 2013 de Neill Blomkamp avec Matt Damon, Jodie Foster, Sharlto Copley, Alice Braga, Diego Luna, Wagner Moura, William Fichtner (Heurte la sensibilité) [allocine=182991,imdb=tt1535108]
Encoded date : UTC 2017-05-20 07:42:36

Writing application : mkvmerge v8.0.0 (‘Til The Day That I Die’) 64bit

Writing library : libebml v1.3.1 + libmatroska v1.4.2

Cover : Yes

Attachments : Cover.jpg / Cover2.jpg

Video
ID : 1

Format : HEVC
Format/Info : High Efficiency Video Coding

Format profile : Main [email protected]@Main

Codec ID : V_MPEGH/ISO/HEVC

Duration : 1 h 49 min

Bit rate : 4 090 kb/s

Width : 1 920 pixels

Height : 804 pixels

Display aspect ratio : 2.40:1

Frame rate mode : Constant

Frame rate : 23.976 (24000/1001) FPS

Color space : YUV

Chroma subsampling : 4:2:0

Bit depth : 10 bits

Bits/(Pixel*Frame) : 0.111

Stream size : 3.13 GiB (82%)

Title : Video HEVC 1920×804 @23.976 x265 [email protected]@Main 10bits Q17.78 veryslow 2227mn
Writing library : x265 1.9:[Windows][GCC 4.9.2][64 bit] 10bit

Encoding settings : wpp / ctu=64 / min-cu-size=8 / max-tu-size=32 / tu-intra-depth=3 / tu-inter-depth=3 / me=3 / subme=4 / merange=57 / rect / amp / max-merge=4 / temporal-mvp / no-early-skip / rdpenalty=0 / no-tskip / no-tskip-fast / strong-intra-smoothing / no-lossless / no-cu-lossless / no-constrained-intra / no-fast-intra / open-gop / no-temporal-layers / interlace=0 / keyint=240 / min-keyint=24 / scenecut=40 / rc-lookahead=40 / lookahead-slices=0 / bframes=8 / bframe-bias=0 / b-adapt=2 / ref=5 / limit-refs=1 / limit-modes / weightp / weightb / aq-mode=1 / qg-size=32 / aq-strength=1.00 / cbqpoffs=0 / crqpoffs=0 / rd=6 / psy-rd=2.00 / rdoq-level=2 / psy-rdoq=1.00 / signhide / deblock / sao / no-sao-non-deblock / b-pyramid / cutree / no-intra-refresh / rc=crf / crf=17.8 / qcomp=0.60 / qpmin=0 / qpmax=51 / qpstep=4 / ipratio=1.40 / pbratio=1.30

Default : Yes

Forced : No

Color range : Limited

Color primaries : BT.709

Transfer characteristics : BT.709

Matrix coefficients : BT.709

Audio #1
ID : 2

Format : E-AC-3
Format/Info : Enhanced AC-3

Commercial name : Dolby Digital Plus

Codec ID : A_EAC3

Duration : 1 h 49 min

Bit rate mode : Constant

Bit rate : 448 kb/s

Channel(s) : 6 channels

Channel layout : L R C LFE Ls Rs

Sampling rate : 48.0 kHz

Frame rate : 31.250 FPS (1536 SPF)

Compression mode : Lossy

Delay relative to video : -5 ms

Stream size : 351 MiB (9%)

Title : Français 5.1 EAC3 448kbps 48khz 16bits
Language : French
Service kind : Complete Main

Default : Yes

Forced : No

Audio #2
ID : 3

Format : E-AC-3
Format/Info : Enhanced AC-3

Commercial name : Dolby Digital Plus

Codec ID : A_EAC3

Duration : 1 h 49 min

Bit rate mode : Constant

Bit rate : 448 kb/s

Channel(s) : 6 channels

Channel layout : L R C LFE Ls Rs

Sampling rate : 48.0 kHz

Frame rate : 31.250 FPS (1536 SPF)

Compression mode : Lossy

Delay relative to video : -5 ms

Stream size : 351 MiB (9%)

Title : English 5.1 EAC3 448kbps 48khz 16bits
Language : English
Service kind : Complete Main

Default : No

Forced : No

Text #1
ID : 4

Format : UTF-8
Codec ID : S_TEXT/UTF8

Codec ID/Info : UTF-8 Plain Text

Duration : 1 h 49 min

Bit rate : 3 b/s

Count of elements : 95

Stream size : 2.89 KiB (0%)

Title : Français forcé (Passages)
Language : French
Default : Yes

Forced : Yes

Text #2
ID : 5

Format : UTF-8
Codec ID : S_TEXT/UTF8

Codec ID/Info : UTF-8 Plain Text

Duration : 1 h 49 min

Bit rate : 35 b/s

Count of elements : 1141

Stream size : 28.9 KiB (0%)

Title : Français complet (Tous le film)
Language : French
Default : No

Forced : No

Text #3
ID : 6

Format : PGS
Muxing mode : zlib

Codec ID : S_HDMV/PGS

Codec ID/Info : Picture based subtitle format used on BDs/HD-DVDs

Duration : 1 h 48 min

Bit rate : 9 127 b/s

Count of elements : 2266

Stream size : 7.09 MiB (0%)

Title : Français complet (Tous le film) PGS
Language : French
Default : No

Forced : No

Text #4
ID : 7

Format : PGS
Muxing mode : zlib

Codec ID : S_HDMV/PGS

Codec ID/Info : Picture based subtitle format used on BDs/HD-DVDs

Duration : 1 h 39 min

Bit rate : 12.3 kb/s

Count of elements : 2138

Stream size : 8.77 MiB (0%)

Title : English full (All the movie) PGS
Language : English
Default : No

Forced : No

Text #5
ID : 8

Format : PGS
Muxing mode : zlib

Codec ID : S_HDMV/PGS

Codec ID/Info : Picture based subtitle format used on BDs/HD-DVDs

Duration : 1 h 47 min

Bit rate : 8 305 b/s

Count of elements : 2628

Stream size : 6.38 MiB (0%)

Title : English full SDH PGS
Language : English
Default : No

Forced : No

Menu
00:00:00.000 : :01 – 00:00:00

00:07:02.588 : :02 – 00:07:02

00:11:59.343 : :03 – 00:11:59

00:19:27.624 : :04 – 00:19:27

00:25:34.824 : :05 – 00:25:34

00:30:02.342 : :06 – 00:30:02

00:39:22.068 : :07 – 00:39:22

00:57:43.960 : :08 – 00:57:43

01:00:59.197 : :09 – 01:00:59

01:04:09.637 : :10 – 01:04:09

01:07:22.663 : :11 – 01:07:22

01:10:34.146 : :12 – 01:10:34

01:16:59.865 : :13 – 01:16:59

01:22:50.131 : :14 – 01:22:50

01:30:19.914 : :15 – 01:30:19

01:35:44.530 : :16 – 01:35:44

01:42:05.160 : :17 – 01:42:05

Elysium 2013 Bonus BR VFF ENGDownload Torrent Magnet

#Elysium #Bonus #VFF #ENG