Edge of Tomorrow 2014 Bonus B Full Torrent Magnet Download

Download Torrent Edge of Tomorrow 2014 Bonus B Movie Full in HD Result. Movie Edge of Tomorrow 2014 Bonus B Torrent Download full. Movie Edge of Tomorrow 2014 Bonus B torrent Magnet Download Full. Edge of Tomorrow 2014 Bonus B Full Movie Torrent Download And Magnet Download For your PC And Mobiles. Latest Movie Edge of Tomorrow 2014 Bonus B Download Link In Bottom.

Torrent And Magnet Links Below

______________________________________________________________________________________________________________
Edge of Tomorrow 2014
Bluray · 1080p x265 10bits · DD+ 5.1 VFF VFQ ENG
More Bonus
¯¯¯¯¯¯¯¯¯¯¯¯¯¯¯¯¯¯¯¯¯¯¯¯¯¯¯¯¯¯¯¯¯¯¯¯¯¯¯¯¯¯¯¯¯¯¯¯¯¯¯¯¯¯¯¯¯¯¯¯¯¯¯¯¯¯¯¯¯¯¯¯¯¯¯¯¯¯¯¯

Year : 2014

Country : United States, Canada

Original, French and English Title : Edge of Tomorrow

Quebec Title : Un jour sans lendemain

Director : Doug Liman
Music from : Christophe Beck

Acteurs : Tom Cruise, Emily Blunt, Bill Paxton, Brendan Gleeson, Noah Taylor, Kick Gurry, Dragomir Mrsic, Charlotte Riley

Jonas Armstrong, Franz Drameh, Masayoshi Haneda, Tony Way

Genre : Sci-Fi, War, Action, Adventure

Certificate : All public
Budget : 178 000 000 $ · Recipe : 369 206 256 $ · ratio : 207 %

Link : Allociné 4,1 /5 · IMDB 7,9 /10 · TMDB 76 % · SensCritique 6,8 /10 · Wiki · Bande Annonce

French Plot
Dans un futur proche , des hordes d’extraterrestres ont livré une bataille acharnée contre la Terre et semblent désormais invincibles: aucune armée au monde n’a réussi à les vaincre . Le commandant William Cage , qui n’a jamais combattu de sa vie, est envoyé, sans la moindre explication, dans ce qui ressemble à une mission-suicide . Il meurt en l’espace de quelques minutes et se retrouve projeté dans une boucle temporelle , condamné à revivre le même combat et à mourir de nouveau indéfiniment…

Adaptation de : “All You Need Is Kill” de Hiroshi Sakurazaka

Bonus
7 Deleted Scenes 7 mn – 45,60 Mib – 1920×1080 HEVC 10Bits – VOSTFR – 44ac07d6
Creatures not of this world 5 mn – 50,90 Mib – 1920×1080 HEVC 10Bits – VOSTFR – f2a2f954
Making of 42 mn – 416,0 Mib – 1920×1080 HEVC 10Bits – VOSTFR – 21217799
Storming the beach 8 mn – 100,0 Mib – 1920×1080 HEVC 10Bits – VOSTFR – c6ce036e
Weapons of the future 8 mn – 97,80 Mib – 1920×1080 HEVC 10Bits – VOSTFR – 5ba20f26
5 bonus, total 710,3 Mib 1 h13 mn


If you enjoy and wish to support, please stay in seeding

Technical Details
¯¯¯¯¯¯¯¯¯¯¯¯¯¯¯¯¯¯¯¯¯¯¯¯¯¯¯¯¯¯¯¯¯¯¯¯¯¯¯¯¯¯¯¯¯¯¯¯¯¯¯¯¯¯¯¯¯¯¯¯¯¯¯¯¯¯¯¯¯¯¯¯¯¯¯¯¯¯¯¯¯¯¯¯¯¯¯¯¯¯¯¯¯¯¯¯¯¯¯¯
Media
Matroska 4,35 Gio 1 h53 mn 5483 Kbps, Total 5,04 Gio 3 h06 mn
Video
HEVC/H265 1920 x800 @23.976 [email protected]@Main 10 bits 4126 Kbps VerySlow
Audio
True French 5.1 EAC3 448 Kbps 48KHz 16bits

Quebec French 5.1 EAC3 448 Kbps 48KHz 16bits

English (OV) 5.1 EAC3 448 Kbps 48KHz 16bits

Subtitles
True French forced SRT
True French full SRT
True French full PGS
English full SDH PGS
Chapters
International

Screenshot

Origin
Bluray : Video AVC 1080p 26214 Kbps, VFF 5.1 DTS 1509 Kbps, VFQ 5.1 AC3 640 Kbps, Anglais 7.1 DTS-HDMA 5208 Kbps

NFO
¯¯¯¯¯¯¯¯¯¯¯¯¯¯¯¯¯¯¯¯¯¯¯¯¯¯¯¯¯¯¯¯¯¯¯¯¯¯¯¯¯¯¯¯¯¯¯¯¯¯¯¯¯¯¯¯¯¯¯¯¯¯¯¯¯¯¯¯¯¯¯¯¯¯¯¯¯¯¯¯¯¯¯¯¯¯¯¯¯¯¯¯¯¯¯¯¯¯¯¯

General
Format : Matroska
Format version : Version 4 / Version 2

File size : 4.35 GiB
Duration : 1 h 53 min

Overall bit rate : 5 483 kb/s

Movie name : Edge of Tomorrow 2014 de Doug Liman avec Tom Cruise, Emily Blunt, Bill Paxton, Brendan Gleeson, Noah Taylor, Kick Gurry, Dragomir Mrsic, Charlotte Riley, Jonas Armstrong, Franz Drameh, Masayoshi Haneda, Tony Way. Tout public (allocine=185030,imdb=tt1631867) T0M
Encoded date : UTC 2017-10-13 11:58:36

Writing application : mkvmerge v8.0.0 (‘Til The Day That I Die’) 64bit

Writing library : libebml v1.3.1 + libmatroska v1.4.2

Cover : Yes

Attachments : Cover.jpg / Cover2.jpg / Logo.png / Poster.jpg

Video
ID : 1

Format : HEVC
Format/Info : High Efficiency Video Coding

Format profile : Main [email protected]@Main

Codec ID : V_MPEGH/ISO/HEVC

Duration : 1 h 53 min

Bit rate : 4 126 kb/s

Width : 1 920 pixels

Height : 800 pixels

Display aspect ratio : 2.40:1

Frame rate mode : Constant

Frame rate : 23.976 (24000/1001) FPS

Color space : YUV

Chroma subsampling : 4:2:0

Bit depth : 10 bits

Bits/(Pixel*Frame) : 0.112

Stream size : 3.27 GiB (75%)

Title : Video HEVC 1920×800 @23.976 x265 [email protected]@Main 10bits veryslow 2170mn
Writing library : x265 1.9:[Windows][GCC 4.9.2][64 bit] 10bit

Encoding settings : wpp / ctu=64 / min-cu-size=8 / max-tu-size=32 / tu-intra-depth=3 / tu-inter-depth=3 / me=3 / subme=4 / merange=57 / rect / amp / max-merge=4 / temporal-mvp / no-early-skip / rdpenalty=0 / no-tskip / no-tskip-fast / strong-intra-smoothing / no-lossless / no-cu-lossless / no-constrained-intra / no-fast-intra / open-gop / no-temporal-layers / interlace=0 / keyint=240 / min-keyint=24 / scenecut=40 / rc-lookahead=40 / lookahead-slices=0 / bframes=8 / bframe-bias=0 / b-adapt=2 / ref=5 / limit-refs=1 / limit-modes / weightp / weightb / aq-mode=1 / qg-size=32 / aq-strength=1.00 / cbqpoffs=0 / crqpoffs=0 / rd=6 / psy-rd=2.00 / rdoq-level=2 / psy-rdoq=1.00 / signhide / deblock / sao / no-sao-non-deblock / b-pyramid / cutree / no-intra-refresh / rc=crf / crf=18.6 / qcomp=0.60 / qpmin=0 / qpmax=51 / qpstep=4 / ipratio=1.40 / pbratio=1.30

Default : Yes

Forced : No

Color range : Limited

Color primaries : BT.709

Transfer characteristics : BT.709

Matrix coefficients : BT.709

Audio #1
ID : 2

Format : E-AC-3
Format/Info : Enhanced Audio Coding 3

Format settings, Endianness : Big

Codec ID : A_EAC3

Duration : 1 h 51 min

Bit rate mode : Constant

Bit rate : 448 kb/s

Channel(s) : 6 channels

Channel positions : Front: L C R, Side: L R, LFE

Sampling rate : 48.0 kHz

Frame rate : 187.500 FPS (256 spf)

Compression mode : Lossy

Delay relative to video : -5 ms

Stream size : 350 MiB (8%)

Title : Français 5.1 EAC3 448kbps 48khz 16bits
Language : French
Service kind : Complete Main

Default : Yes

Forced : No

Audio #2
ID : 3

Format : E-AC-3
Format/Info : Enhanced Audio Coding 3

Format settings, Endianness : Big

Codec ID : A_EAC3

Duration : 1 h 53 min

Bit rate mode : Constant

Bit rate : 448 kb/s

Channel(s) : 6 channels

Channel positions : Front: L C R, Side: L R, LFE

Sampling rate : 48.0 kHz

Frame rate : 187.500 FPS (256 spf)

Compression mode : Lossy

Delay relative to video : -5 ms

Stream size : 364 MiB (8%)

Title : Québécois 5.1 EAC3 448kbps 48khz 16bits
Language : French
Service kind : Complete Main

Default : No

Forced : No

Audio #3
ID : 4

Format : E-AC-3
Format/Info : Enhanced Audio Coding 3

Format settings, Endianness : Big

Codec ID : A_EAC3

Duration : 1 h 53 min

Bit rate mode : Constant

Bit rate : 448 kb/s

Channel(s) : 6 channels

Channel positions : Front: L C R, Side: L R, LFE

Sampling rate : 48.0 kHz

Frame rate : 187.500 FPS (256 spf)

Compression mode : Lossy

Delay relative to video : -5 ms

Stream size : 364 MiB (8%)

Title : English 5.1 EAC3 448kbps 48khz 16bits
Language : English
Service kind : Complete Main

Default : No

Forced : No

Text #1
ID : 5

Format : UTF-8
Codec ID : S_TEXT/UTF8

Codec ID/Info : UTF-8 Plain Text

Duration : 1 h 53 min

Bit rate : 0 b/s

Count of elements : 18

Stream size : 633 Bytes (0%)

Title : Français forcé (Passages)
Language : French
Default : Yes

Forced : Yes

Text #2
ID : 6

Format : UTF-8
Codec ID : S_TEXT/UTF8

Codec ID/Info : UTF-8 Plain Text

Duration : 1 h 53 min

Bit rate : 45 b/s

Count of elements : 1351

Stream size : 38.0 KiB (0%)

Title : Français complet (Tous le film)
Language : French
Default : No

Forced : No

Text #3
ID : 7

Format : PGS
Muxing mode : zlib

Codec ID : S_HDMV/PGS

Codec ID/Info : Picture based subtitle format used on BDs/HD-DVDs

Duration : 1 h 52 min

Bit rate : 11.5 kb/s

Count of elements : 2686

Stream size : 9.25 MiB (0%)

Title : Français complet (Tous le film) PGS
Language : French
Default : No

Forced : No

Text #4
ID : 8

Format : PGS
Muxing mode : zlib

Codec ID : S_HDMV/PGS

Codec ID/Info : Picture based subtitle format used on BDs/HD-DVDs

Duration : 1 h 53 min

Bit rate : 13.9 kb/s

Count of elements : 3026

Stream size : 11.2 MiB (0%)

Title : English full SDH PGS
Language : English
Default : No

Forced : No

Menu
00:00:00.000 : :01 – 00:00:00

00:10:28.169 : :02 – 00:10:28

00:17:39.099 : :03 – 00:17:39

00:24:50.197 : :04 – 00:24:50

00:35:57.947 : :05 – 00:35:57

00:46:27.284 : :06 – 00:46:27

00:54:34.771 : :07 – 00:54:34

01:04:59.562 : :08 – 01:04:59

01:12:53.077 : :09 – 01:12:53

01:23:08.900 : :10 – 01:23:08

01:32:34.131 : :11 – 01:32:34

01:42:53.584 : :12 – 01:42:53

01:45:46.214 : :13 – 01:45:46

Edge of Tomorrow 2014 Bonus BDownload Torrent Magnet

#Edge #Tomorrow #Bonus