Edge.of.the.World.2021.HDRip. Full Torrent Magnet Download

Download Torrent Edge.of.the.World.2021.HDRip. Movie Full in HD Result. Movie Edge.of.the.World.2021.HDRip. Torrent Download full. Movie Edge.of.the.World.2021.HDRip. torrent Magnet Download Full. Edge.of.the.World.2021.HDRip. Full Movie Torrent Download And Magnet Download For your PC And Mobiles. Latest Movie Edge.of.the.World.2021.HDRip. Download Link In Bottom.

Torrent And Magnet Links Below

Edge.of.the.World.2021.HDRip.XviD.B4ND1T69

Director: Michael Haussman

Writer: Rob Allyn

Stars: Jonathan Rhys Meyers, Dominic Monaghan, Ralph Ineson

Plot/Story:

The adventures of Sir James Brooke, who defied the British Empire to rule a jungle kingdom in 1840s Borneo, embarked on a lifelong crusade to end piracy, slavery and head-hunting, and inspired LORD JIM and THE MAN WHO WOULD BE KING.

General

Complete name : Edge.of.the.World.2021.HDRip.XviD.B4ND1T69.avi

Format : AVI

Format/Info : Audio Video Interleave

File size : 948 MiB

Duration : 1 h 44 min

Overall bit rate : 1 271 kb/s

Subtitles : Yes…Hardcoded for non-English parts + file included(HI)

Video

ID : 0

Format : MPEG-4 Visual

Format profile : Advanced [email protected]
Format settings, BVOP : 2

Format settings, QPel : No

Format settings, GMC : No warppoints

Format settings, Matrix : Default (H.263)

Codec ID : XVID

Codec ID/Hint : XviD

Duration : 1 h 44 min

Bit rate : 1 130 kb/s

Width : 720 pixels

Height : 304 pixels

Display aspect ratio : 2.35:1

Frame rate : 23.976 (24000/1001) FPS

Color space : YUV

Chroma subsampling : 4:2:0

Bit depth : 8 bits

Scan type : Progressive

Compression mode : Lossy

Bits/(Pixel*Frame) : 0.215

Stream size : 843 MiB (89%)

Writing library : XviD 64

Audio

ID : 1

Format : MPEG Audio

Format version : Version 1

Format profile : Layer 3

Codec ID : 55

Codec ID/Hint : MP3

Duration : 1 h 44 min

Bit rate mode : Constant

Bit rate : 128 kb/s

Channel(s) : 2 channels

Sampling rate : 48.0 kHz

Compression mode : Lossy

Stream size : 95.5 MiB (10%)

Alignment : Aligned on interleaves

Interleave, duration : 24 ms (0.58 video frame)

Screenshots:









Please Seed For As Long As Possible

Or At Least 1:1 Ratio…Thanks

Enjoy Peeps

Edge.of.the.World.2021.HDRip.Download Torrent Magnet

#EdgeoftheWorld2021HDRip