Edge of The World (2021) 1080 Full Torrent Magnet Download

Download Torrent Edge of The World (2021) 1080 Movie Full in HD Result. Movie Edge of The World (2021) 1080 Torrent Download full. Movie Edge of The World (2021) 1080 torrent Magnet Download Full. Edge of The World (2021) 1080 Full Movie Torrent Download And Magnet Download For your PC And Mobiles. Latest Movie Edge of The World (2021) 1080 Download Link In Bottom.

Torrent And Magnet Links Below

www.imdb.com/title/tt3006472/

The adventures of Sir James Brooke, who defied the British Empire to rule a jungle kingdom in 1840s Borneo, embarked on a lifelong crusade to end piracy, slavery and head-hunting, and inspired LORD JIM and THE MAN WHO WOULD BE KING.

Source: NOGRP (Amzn)

Format : MPEG-4

Format profile : Base Media / Version 2

Codec ID : mp42 (isom/iso2/avc1/mp41)

File size : 1.94 GiB

Duration : 1 h 44 min

Overall bit rate mode : Variable

Overall bit rate : 2 658 kb/s

Writing application : HandBrake 1.3.3 2020061300

Video

ID : 1

Format : AVC

Format/Info : Advanced Video Codec

Format profile : [email protected]
Format settings : CABAC / 1 Ref Frames

Format settings, CABAC : Yes

Format settings, Reference : 1 frame

Format settings, GOP : N=1

Codec ID : avc1

Codec ID/Info : Advanced Video Coding

Duration : 1 h 44 min

Bit rate : 2 169 kb/s

Width : 1 920 pixels

Height : 800 pixels

Display aspect ratio : 2.40:1

Frame rate mode : Variable

Frame rate : 23.976 (24000/1001) FPS

Minimum frame rate : 23.974 FPS

Maximum frame rate : 23.981 FPS

Color space : YUV

Chroma subsampling : 4:2:0

Bit depth : 8 bits

Scan type : Progressive

Bits/(Pixel*Frame) : 0.059

Stream size : 1.58 GiB (82%)

Writing library : x264 core 157 r2935 545de2f

Color primaries : BT.709

Transfer characteristics : BT.709

Matrix coefficients : BT.709

Audio #1

ID : 2

Format : AC-3

Format/Info : Audio Coding 3

Commercial name : Dolby Digital

Codec ID : ac-3

Duration : 1 h 44 min

Bit rate mode : Constant

Bit rate : 320 kb/s

Channel(s) : 6 channels

Channel layout : L R C LFE Ls Rs

Sampling rate : 48.0 kHz

Frame rate : 31.250 FPS (1536 SPF)

Compression mode : Lossy

Stream size : 239 MiB (12%)

Title : Surround

Language : English

Service kind : Complete Main

Default : Yes

Audio #2

ID : 3

Format : AAC LC

Format/Info : Advanced Audio Codec Low Complexity

Codec ID : mp4a-40-2

Duration : 1 h 44 min

Bit rate mode : Constant

Bit rate : 161 kb/s

Channel(s) : 2 channels

Channel layout : L R

Sampling rate : 48.0 kHz

Frame rate : 46.875 FPS (1024 SPF)

Compression mode : Lossy

Stream size : 120 MiB (6%)

Title : Stereo

Language : English

Text
Language : English

Default : Yes

Forced : No

Language : English

Default : No

Forced : No

Edge of The World (2021) 1080Download Torrent Magnet

#Edge #World