Eden.Lake.2008.BRRip.XviD.B4N Full Torrent Magnet Download

Download Torrent Eden.Lake.2008.BRRip.XviD.B4N Movie Full in HD Result. Movie Eden.Lake.2008.BRRip.XviD.B4N Torrent Download full. Movie Eden.Lake.2008.BRRip.XviD.B4N torrent Magnet Download Full. Eden.Lake.2008.BRRip.XviD.B4N Full Movie Torrent Download And Magnet Download For your PC And Mobiles. Latest Movie Eden.Lake.2008.BRRip.XviD.B4N Download Link In Bottom.

Torrent And Magnet Links Below

Eden.Lake.2008.BRRip.XviD.B4ND1T69

Director: James Watkins

Writer: James Watkins

Stars: Kelly Reilly, Michael Fassbender, Tara Ellis

Plot/Story:

Refusing to let anything spoil their romantic weekend break, a young couple confront a gang of loutish youths with terrifyingly brutal consequences.

General

Complete name : Eden.Lake.2008.BRRip.XviD.B4ND1T69.avi

Format : AVI

Format/Info : Audio Video Interleave

File size : 1.11 GiB

Duration : 1 h 30 min

Overall bit rate : 1 741 kb/s

Subtitles : Yes…Included(HI)

Video

ID : 0

Format : MPEG-4 Visual

Format profile : Advanced [email protected]
Format settings, BVOP : 2

Format settings, QPel : No

Format settings, GMC : No warppoints

Format settings, Matrix : Default (H.263)

Codec ID : XVID

Codec ID/Hint : XviD

Duration : 1 h 30 min

Bit rate : 1 600 kb/s

Width : 720 pixels

Height : 304 pixels

Display aspect ratio : 2.35:1

Frame rate : 24.000 FPS

Color space : YUV

Chroma subsampling : 4:2:0

Bit depth : 8 bits

Scan type : Progressive

Compression mode : Lossy

Bits/(Pixel*Frame) : 0.305

Stream size : 1.02 GiB (92%)

Writing library : XviD 64

Audio

ID : 1

Format : MPEG Audio

Format version : Version 1

Format profile : Layer 3

Codec ID : 55

Codec ID/Hint : MP3

Duration : 1 h 30 min

Bit rate mode : Constant

Bit rate : 128 kb/s

Channel(s) : 2 channels

Sampling rate : 48.0 kHz

Compression mode : Lossy

Stream size : 83.3 MiB (7%)

Alignment : Aligned on interleaves

Interleave, duration : 24 ms (0.58 video frame)

Screenshots:









Please Seed For As Long As Possible

Or At Least 1:1 Ratio…Thanks

Enjoy Peeps

Eden.Lake.2008.BRRip.XviD.B4NDownload Torrent Magnet

#EdenLake2008BRRipXviDB4N