E T the Extra-Terrestrial 198 Full Torrent Magnet Download

Download Torrent E T the Extra-Terrestrial 198 Movie Full in HD Result. Movie E T the Extra-Terrestrial 198 Torrent Download full. Movie E T the Extra-Terrestrial 198 torrent Magnet Download Full. E T the Extra-Terrestrial 198 Full Movie Torrent Download And Magnet Download For your PC And Mobiles. Latest Movie E T the Extra-Terrestrial 198 Download Link In Bottom.

Torrent And Magnet Links Below

______________________________________________________________________________________________________________
E T the Extra-Terrestrial 1982
Bluray · 1080p x265 10bits · DD+ 5.1 VFF ENG · 30th Anniversary
¯¯¯¯¯¯¯¯¯¯¯¯¯¯¯¯¯¯¯¯¯¯¯¯¯¯¯¯¯¯¯¯¯¯¯¯¯¯¯¯¯¯¯¯¯¯¯¯¯¯¯¯¯¯¯¯¯¯¯¯¯¯¯¯¯¯¯¯¯¯¯¯¯¯¯¯¯¯¯¯

Year : 1982

Country : United States

Version : Remastered 30th Anniversary 2012

Original and English Title : E T the Extra-Terrestrial

French Title : E T l’extra-terrestre

Quebec Title : E T l’extraterrestre

Director : Steven Spielberg
Music from : John Williams

Acteurs : Dee Wallace, Henry Thomas, Peter Coyote, Robert MacNaughton, Drew Barrymore

Genre : Sci-Fi, Adventure, Family

Certificate : From 6 years old
Budget : 10 500 000 $ · Recipe : 980 882 675 $ · ratio : 9342 %

Link : Allociné 4,2 /5 · IMDB 7,9 /10 · TMDB 74 % · SensCritique 7,2 /10 · Wiki · Bande Annonce

French Plot
Une soucoupe volante atterrit en pleine nuit près de Los Angeles . Quelques extraterrestres, envoyés sur Terre en mission d’exploration botanique , sortent de l’engin, mais un des leurs s’aventure au-delà de la clairière où se trouve la navette. Celui-ci se dirige alors vers la ville. C’est sa première découverte de la civilisation humaine . Bientôt traquée par des militaires et abandonnée par les siens , cette petite créature apeurée se réfugie dans une résidence de banlieue. Elliot , un garçon de 10 ans , le découvre et lui construit un abri dans son armoire. Rapprochés par un échange télépathique , les deux êtres ne tardent pas à devenir amis. Aidé par sa soeur Gertie et son frère aîné Michael , Elliot va alors tenter de garder la présence d’E.T. secrète


If you enjoy and wish to support, please stay in seeding

Technical Details
¯¯¯¯¯¯¯¯¯¯¯¯¯¯¯¯¯¯¯¯¯¯¯¯¯¯¯¯¯¯¯¯¯¯¯¯¯¯¯¯¯¯¯¯¯¯¯¯¯¯¯¯¯¯¯¯¯¯¯¯¯¯¯¯¯¯¯¯¯¯¯¯¯¯¯¯¯¯¯¯¯¯¯¯¯¯¯¯¯¯¯¯¯¯¯¯¯¯¯¯
Media
Matroska 3,91 Gio 1 h54 mn 4894 Kbps

Video
HEVC/H265 1920 x1040 @23.976 [email protected]@Main 10 bits 3989 Kbps VerySlow qp26,33
Audio
True French 5.1 EAC3 448 Kbps 48KHz 16bits

English (OV) 5.1 EAC3 448 Kbps 48KHz 16bits

Subtitles
True French forced SRT
True French full SRT
True French full PGS
Chapters
International, True French, English

Screenshot

Origin
Bluray : Video AVC 1080p 29013 Kbps, VFF 7.1 DTS-HD 2046 Kbps, Anglais 7.1 DTS-HDMA 5052 Kbps

NFO
¯¯¯¯¯¯¯¯¯¯¯¯¯¯¯¯¯¯¯¯¯¯¯¯¯¯¯¯¯¯¯¯¯¯¯¯¯¯¯¯¯¯¯¯¯¯¯¯¯¯¯¯¯¯¯¯¯¯¯¯¯¯¯¯¯¯¯¯¯¯¯¯¯¯¯¯¯¯¯¯¯¯¯¯¯¯¯¯¯¯¯¯¯¯¯¯¯¯¯¯

General
Format : Matroska
Format version : Version 4

File size : 3.91 GiB
Duration : 1 h 54 min

Overall bit rate : 4 894 kb/s

Movie name : E.T. l’extra-terrestre (E.T. the Extra-Terrestrial) 1982 30th Anniversary de Steven Spielberg avec Dee Wallace, Henry Thomas, Peter Coyote, Robert MacNaughton, Drew Barrymore. 6 ans (allocine=29718,imdb=tt0083866) T0M
Encoded date : UTC 2018-12-03 09:46:32

Writing application : mkvmerge v8.0.0 (‘Til The Day That I Die’) 64bit

Writing library : libebml v1.3.1 + libmatroska v1.4.2

Cover : Yes

Attachments : Cover.jpg

Video
ID : 1

Format : HEVC
Format/Info : High Efficiency Video Coding

Format profile : Main [email protected]@Main

Codec ID : V_MPEGH/ISO/HEVC

Duration : 1 h 54 min

Bit rate : 3 989 kb/s

Width : 1 920 pixels

Height : 1 040 pixels

Display aspect ratio : 1.85:1

Frame rate mode : Constant

Frame rate : 23.976 (24000/1001) FPS

Color space : YUV

Chroma subsampling : 4:2:0

Bit depth : 10 bits

Bits/(Pixel*Frame) : 0.083

Stream size : 3.19 GiB (82%)

Title : Video HEVC 1920×1040 @23.976 x265 [email protected]@Main 10bits 3990kbps 2pass veryslow 2290mn
Writing library : x265 2.6:[Windows][GCC 7.3.0][64 bit] 10bit

Encoding settings : cpuid=1173503 / frame-threads=3 / numa-pools=8 / wpp / no-pmode / no-pme / no-psnr / no-ssim / log-level=2 / input-csp=1 / input-res=1920×1040 / interlace=0 / total-frames=0 / level-idc=0 / high-tier=1 / uhd-bd=0 / ref=5 / no-allow-non-conformance / no-repeat-headers / annexb / no-aud / no-hrd / info / hash=0 / no-temporal-layers / open-gop / min-keyint=24 / keyint=240 / bframes=8 / b-adapt=2 / b-pyramid / bframe-bias=0 / rc-lookahead=120 / lookahead-slices=0 / scenecut=40 / no-intra-refresh / ctu=64 / min-cu-size=8 / rect / amp / max-tu-size=32 / tu-inter-depth=3 / tu-intra-depth=3 / limit-tu=4 / rdoq-level=2 / dynamic-rd=0.00 / no-ssim-rd / signhide / no-tskip / nr-intra=0 / nr-inter=0 / no-constrained-intra / strong-intra-smoothing / max-merge=4 / limit-refs=1 / limit-modes / me=3 / subme=4 / merange=57 / temporal-mvp / weightp / weightb / no-analyze-src-pics / deblock=0:0 / sao / no-sao-non-deblock / rd=6 / no-early-skip / rskip / no-fast-intra / no-tskip-fast / no-cu-lossless / b-intra / no-splitrd-skip / rdpenalty=0 / psy-rd=2.00 / psy-rdoq=1.00 / no-rd-refine / analysis-reuse-mode=0 / no-lossless / cbqpoffs=0 / crqpoffs=0 / rc=abr / bitrate=3990 / qcomp=0.60 / qpstep=4 / stats-write=0 / stats-Read=2 / cplxblur=20.0 / qblur=0.5 / ipratio=1.40 / pbratio=1.30 / aq-mode=1 / aq-strength=1.00 / cutree / zone-count=0 / no-strict-cbr / qg-size=32 / no-rc-grain / qpmax=69 / qpmin=0 / no-const-vbv / sar=1 / overscan=0 / videoformat=5 / range=0 / colorprim=1 / transfer=1 / colormatrix=1 / chromaloc=0 / display-window=0 / max-cll=0,0 / min-luma=0 / max-luma=1023 / log2-max-poc-lsb=8 / vui-timing-info / vui-hrd-info / slices=1 / no-opt-qp-pps / no-opt-ref-list-length-pps / no-multi-pass-opt-rps / scenecut-bias=0.05 / no-opt-cu-delta-qp / no-aq-motion / no-hdr / no-hdr-opt / no-dhdr10-opt / analysis-reuse-level=5 / scale-factor=0 / refine-intra=0 / refine-inter=0 / refine-mv=0 / no-limit-sao / ctu-info=0 / no-lowpass-dct / refine-mv-type=0 / copy-pic=1

Default : Yes

Forced : No

Color range : Limited

Color primaries : BT.709

Transfer characteristics : BT.709

Matrix coefficients : BT.709

Audio #1
ID : 2

Format : E-AC-3
Format/Info : Enhanced AC-3

Commercial name : Dolby Digital Plus

Codec ID : A_EAC3

Duration : 1 h 54 min

Bit rate mode : Constant

Bit rate : 448 kb/s

Channel(s) : 6 channels

Channel layout : L R C LFE Ls Rs

Sampling rate : 48.0 kHz

Frame rate : 31.250 FPS (1536 SPF)

Compression mode : Lossy

Delay relative to video : 5 ms

Stream size : 367 MiB (9%)

Title : Français 5.1 EAC3 448kbps 48khz 16bits
Language : French
Service kind : Complete Main

Default : Yes

Forced : No

Audio #2
ID : 3

Format : E-AC-3
Format/Info : Enhanced AC-3

Commercial name : Dolby Digital Plus

Codec ID : A_EAC3

Duration : 1 h 54 min

Bit rate mode : Constant

Bit rate : 448 kb/s

Channel(s) : 6 channels

Channel layout : L R C LFE Ls Rs

Sampling rate : 48.0 kHz

Frame rate : 31.250 FPS (1536 SPF)

Compression mode : Lossy

Delay relative to video : 5 ms

Stream size : 367 MiB (9%)

Title : English 5.1 EAC3 448kbps 48khz 16bits
Language : English
Service kind : Complete Main

Default : No

Forced : No

Text #1
ID : 4

Format : UTF-8
Codec ID : S_TEXT/UTF8

Codec ID/Info : UTF-8 Plain Text

Duration : 1 h 54 min

Bit rate : 0 b/s

Count of elements : 13

Stream size : 444 Bytes (0%)

Title : Français forcé (Passages)
Language : French
Default : Yes

Forced : Yes

Text #2
ID : 5

Format : UTF-8
Codec ID : S_TEXT/UTF8

Codec ID/Info : UTF-8 Plain Text

Duration : 1 h 54 min

Bit rate : 28 b/s

Count of elements : 888

Stream size : 23.7 KiB (0%)

Title : Français complet (Tous le film)
Language : French
Default : No

Forced : No

Text #3
ID : 6

Format : PGS
Muxing mode : zlib

Codec ID : S_HDMV/PGS

Codec ID/Info : Picture based subtitle format used on BDs/HD-DVDs

Duration : 1 h 48 min

Bit rate : 5 336 b/s

Count of elements : 1770

Stream size : 4.13 MiB (0%)

Title : Français complet (Tous le film) PGS
Language : French
Default : No

Forced : No

Menu
00:00:00.000 : :01 – 00:00:00 – fr:Visiteurs en herbe – en:The Visitors

00:04:49.956 : :02 – 00:04:49 – fr:Laissés pour compte – en:Left Behind

00:08:03.649 : :03 – 00:08:03 – fr:La vie d’un garçon – en:A Boy’s Life

00:09:57.096 : :04 – 00:09:57 – fr:Dans la remise – en:Something in the Shed

00:12:36.714 : :05 – 00:12:36 – fr:Rencontre – en:Boy Meets Alien

00:19:24.580 : :06 – 00:19:24 – fr:Un nouvel ami – en:A New Friend

00:31:32.849 : :07 – 00:31:32 – fr:L’Alien d’Elliott – en:Elliott’s Alien

00:36:52.293 : :08 – 00:36:52 – fr:Maison – en:Home

00:43:13.757 : :09 – 00:43:13 – fr:Un lien psychique – en:A Psychic Link

00:50:34.197 : :10 – 00:50:34 – fr:E.T. téléphone maison – en:E.T. Phone Home

00:57:44.794 : :11 – 00:57:44 – fr:La dictée magique – en:The Magic Touch

01:00:34.130 : :12 – 01:00:34 – fr:Halloween – en:Halloween

01:04:13.182 : :13 – 01:04:13 – fr:Un tour au clair de lune – en:A Moonlight Ride

01:11:30.828 : :14 – 01:11:30 – fr:À la recherche de E.T. – en:Looking for E.T.

01:15:23.018 : :15 – 01:15:23 – fr:Quarantaine – en:Quarantine

01:23:37.345 : :16 – 01:23:37 – fr:Perdre E.T. – en:Losing E.T.

01:30:29.841 : :17 – 01:30:29 – fr:Retour à la vie – en:Back to Life

01:35:41.902 : :18 – 01:35:41 – fr:L’évasion – en:The Escape

01:43:26.241 : :19 – 01:43:26 – fr:Je serai juste ici… – en:I’ll Be Right Here…

01:50:34.961 : :20 – 01:50:34 – fr:Générique – en:End Titles

E T the Extra-Terrestrial 198Download Torrent Magnet

#ExtraTerrestrial