Duplicity (2009) 1080p 10bit Full Torrent Magnet Download

Download Torrent Duplicity (2009) 1080p 10bit Movie Full in HD Result. Movie Duplicity (2009) 1080p 10bit Torrent Download full. Movie Duplicity (2009) 1080p 10bit torrent Magnet Download Full. Duplicity (2009) 1080p 10bit Full Movie Torrent Download And Magnet Download For your PC And Mobiles. Latest Movie Duplicity (2009) 1080p 10bit Download Link In Bottom.

Torrent And Magnet Links Below

Outwit. Outspy. Outsmart. Outplay. Then get out…

Duplicity (2009) 1080p 10bit Bluray x265 HEVC [Org DD 5.1 Hindi + DD 5.1 English] MSubs ~ TombDoc

Code:

ormat : Matroska

Format version : Version 4

File size : 4.47 GiB

Duration : 2 h 5 min

Overall bit rate : 5 114 kb/s

Video

ID : 1

Format : HEVC

Format/Info : High Efficiency Video Coding

Format profile : Main [email protected]@Main

Codec ID : V_MPEGH/ISO/HEVC

Duration : 2 h 5 min

Bit rate : 3 975 kb/s

Width : 1 920 pixels

Height : 800 pixels

Display aspect ratio : 2.40:1

Frame rate mode : Constant

Frame rate : 23.976 (24000/1001) FPS

Color space : YUV

Chroma subsampling : 4:2:0

Bit depth : 10 bits

Bits/(Pixel*Frame) : 0.108

Stream size : 3.47 GiB (78%)

Writing library : x265M – 3.4+28-419182243:[Windows][GCC 10.2.0][64 bit] 10bit

Encoding settings : cpuid=1111039 / frame-threads=4 / numa-pools=24 / wpp / no-pmode / no-pme / no-psnr / no-ssim / log-level=2 / input-csp=1 / input-res=1920×800 / interlace=0 / total-frames=179879 / level-idc=0 / high-tier=1 / uhd-bd=0 / ref=5 / no-allow-non-conformance / no-repeat-headers / annexb / no-aud / no-hrd / info / hash=0 / no-temporal-layers / open-gop / min-keyint=23 / keyint=250 / gop-lookahead=0 / bframes=8 / b-adapt=2 / b-pyramid / bframe-bias=0 / rc-lookahead=100 / lookahead-slices=4 / scenecut=40 / hist-scenecut=0 / radl=0 / no-splice / no-intra-refresh / ctu=64 / min-cu-size=8 / rect / amp / max-tu-size=32 / tu-inter-depth=2 / tu-intra-depth=2 / limit-tu=1 / rdoq-level=2 / dynamic-rd=0.00 / ssim-rd / signhide / no-tskip / nr-intra=0 / nr-inter=0 / no-constrained-intra / strong-intra-smoothing / max-merge=5 / limit-refs=3 / limit-modes / me=3 / subme=6 / merange=57 / temporal-mvp / no-frame-dup / no-hme / weightp / no-weightb / no-analyze-src-pics / deblock=0:0 / sao / no-sao-non-deblock / rd=4 / selective-sao=4 / no-early-skip / rskip / no-fast-intra / no-tskip-fast / no-cu-lossless / no-b-intra / no-splitrd-skip / rdpenalty=0 / psy-rd=0.00 / psy-rdoq=2.00 / no-rd-refine / no-lossless / cbqpoffs=0 / crqpoffs=0 / rc=abr / bitrate=4000 / qcomp=0.60 / qpstep=4 / stats-write=0 / stats-read=2 / cplxblur=20.0 / qblur=0.5 / ipratio=1.40 / pbratio=1.30 / aq-mode=4 / aq-strength=1.00 / cutree / zone-count=0 / no-strict-cbr / qg-size=32 / rc-grain / qpmax=69 / qpmin=0 / no-const-vbv / sar=0 / overscan=0 / videoformat=5 / range=0 / colorprim=2 / transfer=2 / colormatrix=2 / chromaloc=0 / display-window=0 / cll=0,0 / min-luma=0 / max-luma=1023 / log2-max-poc-lsb=8 / vui-timing-info / vui-hrd-info / slices=1 / no-opt-qp-pps / no-opt-ref-list-length-pps / no-multi-pass-opt-rps / scenecut-bias=0.05 / hist-threshold=0.03 / no-opt-cu-delta-qp / aq-motion / no-hdr10 / no-hdr10-opt / no-dhdr10-opt / no-idr-recovery-sei / analysis-reuse-level=0 / analysis-save-reuse-level=0 / analysis-load-reuse-level=0 / scale-factor=0 / refine-intra=0 / refine-inter=0 / refine-mv=1 / refine-ctu-distortion=0 / no-limit-sao / ctu-info=0 / no-lowpass-dct / refine-analysis-type=0 / copy-pic=1 / max-ausize-factor=1.0 / no-dynamic-refine / no-single-sei / hevc-aq / no-svt / no-field / qp-adaptation-range=1.00 / no-scenecut-aware-qpconformance-window-offsets / right=0 / bottom=0 / decoder-max-rate=0 / no-vbv-live-multi-pass

Default : Yes

Forced : No

Audio #1

ID : 2

Format : E-AC-3

Format/Info : Enhanced AC-3

Commercial name : Dolby Digital Plus

Codec ID : A_EAC3

Duration : 2 h 5 min

Bit rate mode : Constant

Bit rate : 640 kb/s

Channel(s) : 6 channels

Channel layout : L R C LFE Ls Rs

Sampling rate : 48.0 kHz

Frame rate : 31.250 FPS (1536 SPF)

Compression mode : Lossy

Delay relative to video : 1 s 85 ms

Stream size : 572 MiB (13%)

Title : Org NF DD+ 5.1 640Kbps ~ TombDoc

Language : Hindi

Service kind : Complete Main

Default : Yes

Forced : Yes

Audio #2

ID : 3

Format : E-AC-3

Format/Info : Enhanced AC-3

Commercial name : Dolby Digital Plus

Codec ID : A_EAC3

Duration : 2 h 5 min

Bit rate mode : Constant

Bit rate : 448 kb/s

Channel(s) : 6 channels

Channel layout : L R C LFE Ls Rs

Sampling rate : 48.0 kHz

Frame rate : 31.250 FPS (1536 SPF)

Compression mode : Lossy

Stream size : 401 MiB (9%)

Title : DD+ 5.1 English

Language : English

Service kind : Complete Main

Default : No

Forced : No

Text #1

ID : 4

Format : PGS

Muxing mode : zlib

Codec ID : S_HDMV/PGS

Codec ID/Info : Picture based subtitle format used on BDs/HD-DVDs

Duration : 2 h 4 min

Bit rate : 614 b/s

Count of elements : 106

Stream size : 561 KiB (0%)

Title : Hindi BD-PGS {Forced}

Language : Hindi

Default : Yes

Forced : Yes

Text #2

ID : 5

Format : PGS

Muxing mode : zlib

Codec ID : S_HDMV/PGS

Codec ID/Info : Picture based subtitle format used on BDs/HD-DVDs

Duration : 1 h 59 min

Bit rate : 36.5 kb/s

Count of elements : 3518

Stream size : 31.1 MiB (1%)

Title : Hindi BD-PGS

Language : Hindi

Default : No

Forced : No

Text #3

ID : 6

Format : PGS

Muxing mode : zlib

Codec ID : S_HDMV/PGS

Codec ID/Info : Picture based subtitle format used on BDs/HD-DVDs

Duration : 2 h 1 min

Bit rate : 50.4 kb/s

Count of elements : 3399

Stream size : 43.9 MiB (1%)

Title : Eng BD-PGS-SDH

Language : English

Default : No

Forced : No

Text #4

ID : 7

Format : PGS

Muxing mode : zlib

Codec ID : S_HDMV/PGS

Codec ID/Info : Picture based subtitle format used on BDs/HD-DVDs

Duration : 2 h 0 min

Bit rate : 80.3 kb/s

Count of elements : 4301

Stream size : 69.1 MiB (2%)

Title : Commentary

Language : English

Default : No

Forced : No

Menu

00:00:00.000 : en:Chapter 01

00:05:53.478 : en:Chapter 02

00:10:15.865 : en:Chapter 03

00:15:54.120 : en:Chapter 04

00:21:28.746 : en:Chapter 05

00:28:31.293 : en:Chapter 06

00:33:57.786 : en:Chapter 07

00:40:37.560 : en:Chapter 08

00:49:34.680 : en:Chapter 09

01:01:01.533 : en:Chapter 10

01:06:41.206 : en:Chapter 11

01:12:22.463 : en:Chapter 12

01:17:17.383 : en:Chapter 13

01:26:41.613 : en:Chapter 14

01:36:54.350 : en:Chapter 15

01:41:07.853 : en:Chapter 16

01:45:28.822 : en:Chapter 17

01:51:33.729 : en:Chapter 18

01:56:25.687 : en:Chapter 19

01:59:36.544 : en:Chapter 20

Code:

Source: Duplicity 2009 1080p EUR BluRay VC-1 DTS-HD MA 5.1-NOGROUP

EnjOyY the Quality…


Duplicity (2009) 1080p 10bit Download Torrent Magnet

#Duplicity #1080p #10bit