Dune (1984) EE (1080p BluRay Full Torrent Magnet Download

Download Torrent Dune (1984) EE (1080p BluRay Movie Full in HD Result. Movie Dune (1984) EE (1080p BluRay Torrent Download full. Movie Dune (1984) EE (1080p BluRay torrent Magnet Download Full. Dune (1984) EE (1080p BluRay Full Movie Torrent Download And Magnet Download For your PC And Mobiles. Latest Movie Dune (1984) EE (1080p BluRay Download Link In Bottom.

Torrent And Magnet Links Below


Media Information
I refuse to be limited to the sources that the studios let us have. As such I used AI Inference Software and days of processing to create a new source sharp and clean of compression artifacts. Enjoy this world exclusive 4K Source from the good people at UTR – JoyBell

Media Information

Code:

General
Format : Matroska

Format version : Version 4 / Version 2

File size : 4.31 GiB

Duration : 2 h 57 min

Overall bit rate : 3 483 kb/s

Encoded date : UTC 2021-02-12 01:03:22

Writing application : mkvmerge v52.0.0 (‘Secret For The Mad’) 64-bit

Writing library : libebml v1.4.1 + libmatroska v1.6.2

Cover : Yes

Attachments : cover.jpg

Video
ID : 1

Format : HEVC

Format/Info : High Efficiency Video Coding

Format profile : Main [email protected]@Main

Codec ID : V_MPEGH/ISO/HEVC

Duration : 2 h 57 min

Bit rate : 2 712 kb/s

Width : 1 920 pixels

Height : 800 pixels

Display aspect ratio : 2.40:1

Frame rate mode : Constant

Frame rate : 23.976 (24000/1001) FPS

Color space : YUV

Chroma subsampling : 4:2:0

Bit depth : 10 bits

Bits/(Pixel*Frame) : 0.074

Stream size : 3.36 GiB (78%)

Writing library : x265 3.2+9-971180b100f8:[Windows][MSVC 1923][64 bit] 10bit

Encoding settings : cpuid=1111039 / frame-threads=4 / numa-pools=24 / wpp / no-pmode / no-pme / no-psnr / ssim / log-level=2 / input-csp=1 / input-res=1920×800 / interlace=0 / total-frames=254961 / level-idc=0 / high-tier=1 / uhd-bd=0 / ref=4 / no-allow-non-conformance / no-repeat-headers / annexb / no-aud / no-hrd / info / hash=0 / no-temporal-layers / open-gop / min-keyint=23 / keyint=250 / gop-lookahead=0 / bframes=8 / b-adapt=2 / b-pyramid / bframe-bias=40 / rc-lookahead=120 / lookahead-slices=4 / scenecut=40 / radl=0 / no-splice / no-intra-refresh / ctu=64 / min-cu-size=8 / rect / no-amp / max-tu-size=32 / tu-inter-depth=1 / tu-intra-depth=1 / limit-tu=0 / rdoq-level=2 / dynamic-rd=0.00 / ssim-rd / signhide / no-tskip / nr-intra=0 / nr-inter=0 / constrained-intra / strong-intra-smoothing / max-merge=5 / limit-refs=3 / limit-modes / me=3 / subme=7 / merange=57 / temporal-mvp / no-frame-dup / no-hme / weightp / no-weightb / no-analyze-src-pics / deblock=-3:-3 / sao / no-sao-non-deblock / rd=4 / selective-sao=4 / early-skip / rskip / no-fast-intra / no-tskip-fast / no-cu-lossless / no-b-intra / no-splitrd-skip / rdpenalty=0 / psy-rd=3.50 / psy-rdoq=2.50 / no-rd-refine / no-lossless / cbqpoffs=0 / crqpoffs=0 / rc=crf / crf=18.0 / qcomp=0.60 / qpstep=4 / stats-write=0 / stats-read=0 / ipratio=1.40 / pbratio=1.30 / aq-mode=3 / aq-strength=0.40 / cutree / zone-count=0 / no-strict-cbr / qg-size=32 / no-rc-grain / qpmax=69 / qpmin=0 / no-const-vbv / sar=0 / overscan=0 / videoformat=5 / range=0 / colorprim=2 / transfer=2 / colormatrix=2 / chromaloc=0 / display-window=0 / cll=0,0 / min-luma=0 / max-luma=1023 / log2-max-poc-lsb=8 / vui-timing-info / vui-hrd-info / slices=1 / no-opt-qp-pps / no-opt-ref-list-length-pps / no-multi-pass-opt-rps / scenecut-bias=0.05 / no-opt-cu-delta-qp / no-aq-motion / no-hdr / no-hdr-opt / no-dhdr10-opt / no-idr-recovery-sei / analysis-reuse-level=5 / scale-factor=0 / refine-intra=0 / refine-inter=0 / refine-mv=1 / refine-ctu-distortion=0 / no-limit-sao / ctu-info=0 / no-lowpass-dct / refine-analysis-type=0 / copy-pic=1 / max-ausize-factor=1.0 / no-dynamic-refine / no-single-sei / no-hevc-aq / no-svt / no-field / qp-adaptation-range=1.00

Default : Yes

Forced : No

Audio
ID : 2

Format : DTS

Format/Info : Digital Theater Systems

Mode : 16

Format settings, Endianness : Big

Codec ID : A_DTS

Duration : 2 h 57 min

Bit rate mode : Constant

Bit rate : 768 kb/s

Channel(s) : 6 channels

Channel positions : Front: L C R, Side: L R, LFE

Sampling rate : 48.0 kHz

Frame rate : 93.750 FPS (512 spf)

Bit depth : 16 bits

Compression mode : Lossy

Stream size : 974 MiB (22%)

Language : English

Default : No

Forced : No

Subtitle #1
ID : 3

Format : UTF-8

Codec ID : S_TEXT/UTF8

Codec ID/Info : UTF-8 Plain Text

Duration : 2 h 50 min

Bit rate : 40 b/s

Count of elements : 1660

Stream size : 50.8 KiB (0%)

Language : English

Default : No

Forced : No

Subtitle #2
ID : 4

Format : UTF-8

Codec ID : S_TEXT/UTF8

Codec ID/Info : UTF-8 Plain Text

Duration : 2 h 50 min

Bit rate : 46 b/s

Count of elements : 1395

Stream size : 58.2 KiB (0%)

Language : French

Default : No

Forced : No

Subtitle #3
ID : 5

Format : UTF-8

Codec ID : S_TEXT/UTF8

Codec ID/Info : UTF-8 Plain Text

Duration : 2 h 54 min

Bit rate : 75 b/s

Count of elements : 1706

Stream size : 96.0 KiB (0%)

Language : Greek

Default : No

Forced : No

Subtitle #4
ID : 6

Format : UTF-8

Codec ID : S_TEXT/UTF8

Codec ID/Info : UTF-8 Plain Text

Duration : 2 h 53 min

Bit rate : 45 b/s

Count of elements : 1716

Stream size : 57.7 KiB (0%)

Language : Romanian

Default : No

Forced : No

Subtitle #5
ID : 7

Format : UTF-8

Codec ID : S_TEXT/UTF8

Codec ID/Info : UTF-8 Plain Text

Duration : 2 h 51 min

Bit rate : 41 b/s

Count of elements : 1396

Stream size : 52.4 KiB (0%)

Language : Spanish

Default : No

Forced : No

Subtitle #6
ID : 8

Format : UTF-8

Codec ID : S_TEXT/UTF8

Codec ID/Info : UTF-8 Plain Text

Duration : 2 h 57 min

Bit rate : 83 b/s

Count of elements : 1432

Stream size : 108 KiB (0%)

Language : Thai

Default : No

Forced : No

Source Information

Code:

Release: Dune (1984) EXTENDED BluRay.2160p.AI.DTS.UTR.mkv (27.82 GBs)

Code:


Note From UTR
Whilst we are happy for our releases to be re-posted on a platform we aren’t on, please do so in an ‘as-is’ format. We ask that you do not create a new torrent, include all descriptions you see above including the UTR logo, tags, notes and screenshots. If you’d like to become a permanent poster on a website we don’t post to, feel free to get in contact with a UTR member.

If possible please donate for seedboxes.

BTC – 1QA5fum5AyXvWzdVCkQzUNvw3Ef15fHRaR

Monero – 8AuksPSzY7fen3HHT1a2342PgVy4J93MKfXG3AAcayV76miTyJ3sNfn38srwrpLirGfeR5DwhTL8GW8pdQgT7bZcJ25ynMx

Dash – Xh4mNs6uwZdpCEX2HSEVwGvPD7yKxZ1Ccd

Ethereum – 0x51c06c94e74c16735a7a6e841ad29fc90a84eb1f

Dune (1984) EE (1080p BluRay Download Torrent Magnet

#Dune #1080p #BluRay