Drive.2011.BRRip.XviD.B4ND1T6 Full Torrent Magnet Download

Download Torrent Drive.2011.BRRip.XviD.B4ND1T6 Movie Full in HD Result. Movie Drive.2011.BRRip.XviD.B4ND1T6 Torrent Download full. Movie Drive.2011.BRRip.XviD.B4ND1T6 torrent Magnet Download Full. Drive.2011.BRRip.XviD.B4ND1T6 Full Movie Torrent Download And Magnet Download For your PC And Mobiles. Latest Movie Drive.2011.BRRip.XviD.B4ND1T6 Download Link In Bottom.

Torrent And Magnet Links Below

Drive.2011.BRRip.XviD.B4ND1T69

Director: Nicolas Winding Refn

Writers: Hossein Amini (screenplay), James Sallis (book)

Stars: Ryan Gosling, Carey Mulligan, Bryan Cranston

Plot/Story:

A mysterious Hollywood stuntman and mechanic moonlights as a getaway driver and finds himself in trouble when he helps out his neighbor.

General

Complete name : Drive.2011.BRRip.XviD.B4ND1T69.avi

Format : AVI

Format/Info : Audio Video Interleave

File size : 814 MiB

Duration : 1 h 40 min

Overall bit rate : 1 134 kb/s

Subtitles : Yes…Included(HI)

Video

ID : 0

Format : MPEG-4 Visual

Format profile : Advanced [email protected]
Format settings, BVOP : 2

Format settings, QPel : No

Format settings, GMC : No warppoints

Format settings, Matrix : Default (H.263)

Codec ID : XVID

Codec ID/Hint : XviD

Duration : 1 h 40 min

Bit rate : 993 kb/s

Width : 720 pixels

Height : 304 pixels

Display aspect ratio : 2.35:1

Frame rate : 23.976 (24000/1001) FPS

Color space : YUV

Chroma subsampling : 4:2:0

Bit depth : 8 bits

Scan type : Progressive

Compression mode : Lossy

Bits/(Pixel*Frame) : 0.189

Stream size : 713 MiB (88%)

Writing library : XviD 64

Audio

ID : 1

Format : MPEG Audio

Format version : Version 1

Format profile : Layer 3

Codec ID : 55

Codec ID/Hint : MP3

Duration : 1 h 40 min

Bit rate mode : Constant

Bit rate : 128 kb/s

Channel(s) : 2 channels

Sampling rate : 48.0 kHz

Compression mode : Lossy

Stream size : 91.9 MiB (11%)

Alignment : Aligned on interleaves

Interleave, duration : 24 ms (0.58 video frame)

Screenshots:









Please Seed For As Long As Possible

Or At Least 1:1 Ratio…Thanks

Enjoy Peeps

Drive.2011.BRRip.XviD.B4ND1T6Download Torrent Magnet

#Drive2011BRRipXviDB4ND1T6