Dragons’ Den S18E08 (1280×720 Full Torrent Magnet Download

Download Torrent Dragons’ Den S18E08 (1280×720 Movie Full in HD Result. Movie Dragons’ Den S18E08 (1280×720 Torrent Download full. Movie Dragons’ Den S18E08 (1280×720 torrent Magnet Download Full. Dragons’ Den S18E08 (1280×720 Full Movie Torrent Download And Magnet Download For your PC And Mobiles. Latest Movie Dragons’ Den S18E08 (1280×720 Download Link In Bottom.

Torrent And Magnet Links Below

Dragons’ Den S18E08 (1280x720p HD, 50fps, soft Eng subs)

Plantable children’s books are the offering from two friends who are hoping to gain a Dragon to grow their brand. A pair of ex-bankers pitch their ambitious at-home private chef service, and a Wirral-based entrepreneur pitches his range of luxury home fragrance products. Finally, a husband and wife team are keen to broaden out their scent-detection courses for dogs; will the Dragons see it as an opportunity that’s not to be sniffed at?

First broadcast: 20 May 2021

Duration: 1 hour

Torrent dead? Request reseed at torrentgalaxy.org – or ask at elsonroa at tutanota.com


General

Format : MPEG-4

Format profile : Base Media

Codec ID : isom (isom/iso2/avc1/mp41)

File size : 2.11 GiB

Duration : 58mn 25s

Overall bit rate : 5 183 Kbps

Video

ID : 1

Format : AVC

Format/Info : Advanced Video Codec

Format profile : [email protected]
Format settings, CABAC : Yes

Format settings, ReFrames : 4 frames

Codec ID : avc1

Codec ID/Info : Advanced Video Coding

Duration : 58mn 25s

Bit rate : 5 048 Kbps

Width : 1 280 pixels

Height : 720 pixels

Display aspect ratio : 16:9

Frame rate mode : Constant

Frame rate : 50.000 fps

Color space : YUV

Chroma subsampling : 4:2:0

Bit depth : 8 bits

Scan type : Progressive

Bits/(Pixel*Frame) : 0.110

Stream size : 2.06 GiB (97%)

Encoded date : UTC 1904-01-01 00:00:00

Tagged date : UTC 1904-01-01 00:00:00

Color range : Limited

Color primaries : BT.709

Transfer characteristics : BT.709

Matrix coefficients : BT.709

Audio

ID : 2

Format : AAC

Format/Info : Advanced Audio Codec

Format profile : LC

Codec ID : 40

Duration : 58mn 25s

Bit rate mode : Constant

Bit rate : 128 Kbps

Channel(s) : 2 channels

Channel positions : Front: L R

Sampling rate : 48.0 KHz

Frame rate : 46.875 fps (1024 spf)

Compression mode : Lossy

Stream size : 53.5 MiB (2%)

Language : English

Dragons’ Den S18E08 (1280x720Download Torrent Magnet

#Dragons #Den #S18E08 #1280×720