Dragon.Rider.2020.720p.Bluray Full Torrent Magnet Download

Download Torrent Dragon.Rider.2020.720p.Bluray Movie Full in HD Result. Movie Dragon.Rider.2020.720p.Bluray Torrent Download full. Movie Dragon.Rider.2020.720p.Bluray torrent Magnet Download Full. Dragon.Rider.2020.720p.Bluray Full Movie Torrent Download And Magnet Download For your PC And Mobiles. Latest Movie Dragon.Rider.2020.720p.Bluray Download Link In Bottom.

Torrent And Magnet Links Below

https://www.imdb.com/title/tt7080422/

A young silver dragon teams up with a mountain spirit and an orphaned boy on a journey through the Himalayas in search for the Rim of Heaven.

Video

ID : 1

Format : AVC

Format/Info : Advanced Video Codec

Format profile : [email protected]
Format settings : CABAC / 8 Ref Frames

Format settings, CABAC : Yes

Format settings, Reference frames : 8 frames

Codec ID : V_MPEG4/ISO/AVC

Duration : 1 h 31 min

Bit rate : 2 600 kb/s

Width : 1 280 pixels

Height : 536 pixels

Display aspect ratio : 2.40:1

Frame rate mode : Constant

Frame rate : 23.976 (24000/1001) FPS

Color space : YUV

Chroma subsampling : 4:2:0

Bit depth : 8 bits

Scan type : Progressive

Bits/(Pixel*Frame) : 0.158

Stream size : 1.66 GiB (79%)

Writing library : x264 core 161 r3048 b86ae3c

Encoding settings : cabac=1 / ref=8 / deblock=1:-3:-3 / analyse=0x3:0x133 / me=umh / subme=9 / psy=1 / psy_rd=1.00:0.00 / mixed_ref=1 / me_range=16 / chroma_me=1 / trellis=2 / 8x8dct=1 / cqm=0 / deadzone=21,11 / fast_pskip=1 / chroma_qp_offset=-2 / threads=17 / lookahead_threads=1 / sliced_threads=0 / nr=0 / decimate=1 / interlaced=0 / bluray_compat=0 / constrained_intra=0 / bframes=3 / b_pyramid=2 / b_adapt=2 / b_bias=0 / direct=3 / weightb=1 / open_gop=0 / weightp=2 / keyint=250 / keyint_min=23 / scenecut=40 / intra_refresh=0 / rc_lookahead=60 / rc=crf / mbtree=1 / crf=17.0 / qcomp=0.60 / qpmin=0 / qpmax=69 / qpstep=4 / ip_ratio=1.40 / aq=3:0.80

Language : English

Default : Yes

Forced : No

Color range : Limited

Matrix coefficients : BT.709

Audio

ID : 2

Format : AC-3

Format/Info : Audio Coding 3

Commercial name : Dolby Digital

Codec ID : A_AC3

Duration : 1 h 31 min

Bit rate mode : Constant

Bit rate : 640 kb/s

Channel(s) : 6 channels

Channel layout : L R C LFE Ls Rs

Sampling rate : 48.0 kHz

Frame rate : 31.250 FPS (1536 SPF)

Compression mode : Lossy

Stream size : 418 MiB (19%)

Title : ac3

Language : English

Service kind : Complete Main

Default : Yes

Forced : No

Text #1

ID : 3

Format : PGS

Muxing mode : zlib

Codec ID : S_HDMV/PGS

Codec ID/Info : Picture based subtitle format used on BDs/HD-DVDs

Duration : 1 h 30 min

Bit rate : 20.3 kb/s

Count of elements : 2288

Stream size : 13.2 MiB (1%)

Title : sub

Language : German

Default : No

Forced : No

Text #2

ID : 4

Format : PGS

Muxing mode : zlib

Codec ID : S_HDMV/PGS

Codec ID/Info : Picture based subtitle format used on BDs/HD-DVDs

Duration : 1 h 30 min

Bit rate : 23.6 kb/s

Count of elements : 3250

Stream size : 15.3 MiB (1%)

Title : sub

Language : English

Default : No

Forced : No

Menu

00:00:00.000 : en:00:00:00.000

00:05:00.175 : en:00:05:00.175

00:10:01.559 : en:00:10:01.559

00:17:30.424 : en:00:17:30.424

00:22:46.574 : en:00:22:46.574

00:27:14.132 : en:00:27:14.132

00:34:10.840 : en:00:34:10.840

00:41:48.005 : en:00:41:48.005

00:46:18.109 : en:00:46:18.109

00:53:55.065 : en:00:53:55.065

01:01:47.287 : en:01:01:47.287

01:08:19.095 : en:01:08:19.095

01:14:47.066 : en:01:14:47.066

01:18:31.290 : en:01:18:31.290

01:24:46.873 : en:01:24:46.873

Dragon.Rider.2020.720p.BlurayDownload Torrent Magnet

#DragonRider2020720pBluray