Dragon.Inn.1992.CHINESE.1080p Full Torrent Magnet Download

Download Torrent Dragon.Inn.1992.CHINESE.1080p Movie Full in HD Result. Movie Dragon.Inn.1992.CHINESE.1080p Torrent Download full. Movie Dragon.Inn.1992.CHINESE.1080p torrent Magnet Download Full. Dragon.Inn.1992.CHINESE.1080p Full Movie Torrent Download And Magnet Download For your PC And Mobiles. Latest Movie Dragon.Inn.1992.CHINESE.1080p Download Link In Bottom.

Torrent And Magnet Links Below

https://www.imdb.com/title/tt0105859/

Video

ID : 1

Format : AVC

Format/Info : Advanced Video Codec

Format profile : [email protected]
Format settings : CABAC / 4 Ref Frames

Format settings, CABAC : Yes

Format settings, Reference frames : 4 frames

Codec ID : V_MPEG4/ISO/AVC

Duration : 1 h 43 min

Bit rate : 19.1 Mb/s

Width : 1 920 pixels

Height : 1 080 pixels

Display aspect ratio : 16:9

Frame rate mode : Constant

Frame rate : 24.000 FPS

Color space : YUV

Chroma subsampling : 4:2:0

Bit depth : 8 bits

Scan type : Progressive

Bits/(Pixel*Frame) : 0.384

Stream size : 13.7 GiB (86%)

Writing library : x264 core 161 r3048 b86ae3c

Encoding settings : cabac=1 / ref=4 / deblock=1:-3:-3 / analyse=0x3:0x133 / me=umh / subme=9 / psy=1 / psy_rd=1.00:0.00 / mixed_ref=1 / me_range=16 / chroma_me=1 / trellis=2 / 8x8dct=1 / cqm=0 / deadzone=21,11 / fast_pskip=0 / chroma_qp_offset=-2 / threads=34 / lookahead_threads=2 / sliced_threads=0 / nr=0 / decimate=1 / interlaced=0 / bluray_compat=0 / constrained_intra=0 / bframes=3 / b_pyramid=2 / b_adapt=2 / b_bias=0 / direct=3 / weightb=1 / open_gop=0 / weightp=2 / keyint=250 / keyint_min=24 / scenecut=40 / intra_refresh=0 / rc=crf / mbtree=0 / crf=21.5 / qcomp=0.60 / qpmin=0 / qpmax=69 / qpstep=4 / ip_ratio=1.40 / pb_ratio=1.30 / aq=1:1.00

Language : English

Default : Yes

Forced : No

Audio #1

ID : 2

Format : AC-3

Format/Info : Audio Coding 3

Commercial name : Dolby Digital

Codec ID : A_AC3

Duration : 1 h 42 min

Bit rate mode : Constant

Bit rate : 640 kb/s

Channel(s) : 6 channels

Channel layout : L R C LFE Ls Rs

Sampling rate : 48.0 kHz

Frame rate : 31.250 FPS (1536 SPF)

Compression mode : Lossy

Stream size : 471 MiB (3%)

Title : Cantonese

Language : Chinese

Service kind : Complete Main

Default : Yes

Forced : No

Audio #2

ID : 3

Format : DTS XLL

Format/Info : Digital Theater Systems

Commercial name : DTS-HD Master Audio

Codec ID : A_DTS

Duration : 1 h 42 min

Bit rate mode : Variable

Bit rate : 2 409 kb/s

Channel(s) : 6 channels

Channel layout : C L R Ls Rs LFE

Sampling rate : 48.0 kHz

Frame rate : 93.750 FPS (512 SPF)

Bit depth : 16 bits

Compression mode : Lossless

Stream size : 1.73 GiB (11%)

Title : Mandarin

Language : Chinese

Default : No

Forced : No

Text #1

ID : 4

Format : PGS

Muxing mode : zlib

Codec ID : S_HDMV/PGS

Codec ID/Info : Picture based subtitle format used on BDs/HD-DVDs

Duration : 1 h 41 min

Bit rate : 32.9 kb/s

Count of elements : 2317

Stream size : 23.8 MiB (0%)

Title : English

Language : English

Default : Yes

Forced : No

Text #2

ID : 5

Format : PGS

Muxing mode : zlib

Codec ID : S_HDMV/PGS

Codec ID/Info : Picture based subtitle format used on BDs/HD-DVDs

Duration : 1 h 41 min

Bit rate : 19.4 kb/s

Count of elements : 2060

Stream size : 14.1 MiB (0%)

Title : Korean

Language : Korean

Default : No

Forced : No

Menu

00:00:00.000 : en:Chapter 01

00:08:30.417 : en:Chapter 02

00:13:10.417 : en:Chapter 03

00:21:18.417 : en:Chapter 04

00:29:48.417 : en:Chapter 05

00:37:08.417 : en:Chapter 06

00:47:05.417 : en:Chapter 07

00:54:04.417 : en:Chapter 08

01:08:53.417 : en:Chapter 09

01:17:18.417 : en:Chapter 10

01:25:17.000 : en:Chapter 11

01:32:16.417 : en:Chapter 12

Dragon.Inn.1992.CHINESE.1080pDownload Torrent Magnet

#DragonInn1992CHINESE1080p