Dragées au poivre (1963) TVri Full Torrent Magnet Download

Download Torrent Dragées au poivre (1963) TVri Movie Full in HD Result. Movie Dragées au poivre (1963) TVri Torrent Download full. Movie Dragées au poivre (1963) TVri torrent Magnet Download Full. Dragées au poivre (1963) TVri Full Movie Torrent Download And Magnet Download For your PC And Mobiles. Latest Movie Dragées au poivre (1963) TVri Download Link In Bottom.

Torrent And Magnet Links Below

IMDB

Code:


General

Complete name : Dragées.au.poivre.1963.TVrip.(556x360p).ACC.[Borsalino].mkv

Format : Matroska

Format version : Version 4

File size : 413 MiB

Duration : 1 h 29 min

Overall bit rate mode : Variable

Overall bit rate : 643 kb/s

Movie name : Dragées.au.poivre.1963.TVrip.(556x360p).ACC.[Borsalino]
Writing application : mkvmerge v56.1.0 (‘My Friend’) 64-bit

Writing library : libebml v1.4.2 + libmatroska v1.6.4

Video

ID : 1

Format : AVC

Format/Info : Advanced Video Codec

Format profile : [email protected]
Format settings : CABAC / 3 Ref Frames

Format settings, CABAC : Yes

Format settings, Reference frames : 3 frames

Codec ID : V_MPEG4/ISO/AVC

Duration : 1 h 29 min

Bit rate mode : Variable

Bit rate : 575 kb/s

Maximum bit rate : 1 750 kb/s

Width : 556 pixels

Height : 360 pixels

Display aspect ratio : 3:2

Frame rate mode : Variable

Frame rate : 24.936 FPS

Original frame rate : 25.000 FPS

Color space : YUV

Chroma subsampling : 4:2:0

Bit depth : 8 bits

Scan type : Progressive

Bits/(Pixel*Frame) : 0.115

Stream size : 369 MiB (89%)

Title : French

Language : French

Default : Yes

Forced : No

Audio

ID : 2

Format : AAC LC

Format/Info : Advanced Audio Codec Low Complexity

Codec ID : A_AAC-2

Duration : 1 h 29 min

Bit rate : 66.2 kb/s

Channel(s) : 2 channels

Channel layout : L R

Sampling rate : 44.1 kHz

Frame rate : 43.066 FPS (1024 SPF)

Compression mode : Lossy

Stream size : 42.1 MiB (10%)

Title : French

Language : French

Default : Yes

Forced : No

Spoken language

Subtitles (srt files)

None








Dragées au poivre (1963) TVriDownload Torrent Magnet

#Dragées #poivre #TVri