Double.Jeopardy.1999.1080p.Bl Full Torrent Magnet Download

Download Torrent Double.Jeopardy.1999.1080p.Bl Movie Full in HD Result. Movie Double.Jeopardy.1999.1080p.Bl Torrent Download full. Movie Double.Jeopardy.1999.1080p.Bl torrent Magnet Download Full. Double.Jeopardy.1999.1080p.Bl Full Movie Torrent Download And Magnet Download For your PC And Mobiles. Latest Movie Double.Jeopardy.1999.1080p.Bl Download Link In Bottom.

Torrent And Magnet Links Below

Quote:

*****************************************************************

*******************SCREENSHOTS(Click to enlarge)*******************

*******************************MEDIAINFO****************************

18+.Double.Jeopardy.1999.1080p.BluRay.x264.AAC5.1.LLG.mp4

Format : MPEG-4

Format profile : Base Media

Codec ID : isom (isom/iso2/avc1/mp41)

File size : 1.39 GiB

Duration : 1 h 45 min

Overall bit rate mode : Variable

Overall bit rate : 1 897 kb/s

Writing application : Lavf57.83.100

Video

ID : 1

Format : AVC

Format/Info : Advanced Video Codec

Format profile : [email protected]
Format settings : CABAC / 1 Ref Frames

Format settings, CABAC : Yes

Format settings, Reference frames : 1 frame

Codec ID : avc1

Codec ID/Info : Advanced Video Coding

Duration : 1 h 45 min

Bit rate mode : Variable

Bit rate : 1 509 kb/s

Maximum bit rate : 4 500 kb/s

Width : 1 920 pixels

Height : 800 pixels

Display aspect ratio : 2.40:1

Frame rate mode : Constant

Frame rate : 23.976 (23976/1000) FPS

Color space : YUV

Chroma subsampling : 4:2:0

Bit depth : 8 bits

Scan type : Progressive

Bits/(Pixel*Frame) : 0.041

Stream size : 1.11 GiB (80%)

Codec configuration box : avcC

Audio

ID : 2

Format : AAC LC

Codec ID : mp4a-40-2

Duration : 1 h 45 min

Bit rate mode : Constant

Bit rate : 384 kb/s

Channel(s) : 6 channels

Channel layout : C L R Ls Rs LFE

Sampling rate : 48.0 kHz

Frame rate : 46.875 FPS (1024 SPF)

Compression mode : Lossy

Stream size : 289 MiB (20%)

Default : Yes

Alternate group : 1

********************************************************

Double.Jeopardy.1999.1080p.BlDownload Torrent Magnet

#DoubleJeopardy19991080pBl