Don.Jon.2013.1080p.BluRay.x26 Full Torrent Magnet Download

Download Torrent Don.Jon.2013.1080p.BluRay.x26 Movie Full in HD Result. Movie Don.Jon.2013.1080p.BluRay.x26 Torrent Download full. Movie Don.Jon.2013.1080p.BluRay.x26 torrent Magnet Download Full. Don.Jon.2013.1080p.BluRay.x26 Full Movie Torrent Download And Magnet Download For your PC And Mobiles. Latest Movie Don.Jon.2013.1080p.BluRay.x26 Download Link In Bottom.

Torrent And Magnet Links Below

Quote:

*************************************************************

******************************Thumbnbil:*********************

******************************Screenshots:********************

screenshot 1

screenshot 2

screenshot 3

screenshot 4

screenshot 5

screenshot 6

screenshot 7

screenshot 8

screenshot 9

screenshot 0

******************************************************

18+.Don.Jon.2013.1080p.BluRay.x264.LLG.mp4

Format : MPEG-4

Format profile : Base Media

Codec ID : isom (isom/iso2/avc1/mp41)

File size : 1.01 GiB

Duration : 1 h 30 min

Overall bit rate mode : Variable

Overall bit rate : 1 607 kb/s

Writing application : Lavf58.29.100

Video

ID : 1

Format : AVC

Format/Info : Advanced Video Codec

Format profile : [email protected]
Format settings : CABAC / 1 Ref Frames

Format settings, CABAC : Yes

Format settings, Reference frames : 1 frame

Codec ID : avc1

Codec ID/Info : Advanced Video Coding

Duration : 1 h 30 min

Bit rate mode : Variable

Bit rate : 1 507 kb/s

Maximum bit rate : 4 500 kb/s

Width : 1 920 pixels

Height : 800 pixels

Display aspect ratio : 2.40:1

Frame rate mode : Constant

Frame rate : 23.976 (23976/1000) FPS

Color space : YUV

Chroma subsampling : 4:2:0

Bit depth : 8 bits

Scan type : Progressive

Bits/(Pixel*Frame) : 0.041

Stream size : 973 MiB (94%)

Codec configuration box : avcC

Audio

ID : 2

Format : AAC LC

Codec ID : mp4a-40-2

Duration : 1 h 30 min

Bit rate mode : Constant

Bit rate : 96.0 kb/s

Channel(s) : 2 channels

Channel layout : L R

Sampling rate : 48.0 kHz

Frame rate : 46.875 FPS (1024 SPF)

Compression mode : Lossy

Stream size : 62.1 MiB (6%)

Language : English

Default : Yes

Alternate group : 1

********************************************************

Don.Jon.2013.1080p.BluRay.x26Download Torrent Magnet

#DonJon20131080pBluRayx26