DON 1978 REMASTERED Hindi 108 Full Torrent Magnet Download

Download Torrent DON 1978 REMASTERED Hindi 108 Movie Full in HD Result. Movie DON 1978 REMASTERED Hindi 108 Torrent Download full. Movie DON 1978 REMASTERED Hindi 108 torrent Magnet Download Full. DON 1978 REMASTERED Hindi 108 Full Movie Torrent Download And Magnet Download For your PC And Mobiles. Latest Movie DON 1978 REMASTERED Hindi 108 Download Link In Bottom.

Torrent And Magnet Links Below

DON 1978 REMASTERED 1080p WEB-DL AAC 2.0 x264 ~ BLOX IMDB

Ripped By BLOX

✯ Remastered Version by ShemarooMe Studio ✯

✯ Ripped From ShemarooMe ✯

✯ UNTOUCHED Video and Audio ✯

PLEASE NOTE : IT DOES NOT CONTAIN ANY SUBTITLE !

Quote:

Please Seed Back…

Drop your Suggestions in the Comment

Take Care and Stay Safe Everyone



Code:

General

Format                         : Matroska

Format version                 : Version 4 / Version 2

File size                      : 3.49 GiB

Duration                       : 2 h 39 min

Overall bit rate               : 3 131 kb/s

Video

ID                             : 1

Format                         : AVC

Format/Info                    : Advanced Video Codec

Format profile                 : [email protected]
Format settings                : CABAC / 4 Ref Frames

Format settings, CABAC         : Yes

Format settings, Reference fra : 4 frames

Codec ID                       : V_MPEG4/ISO/AVC

Duration                       : 2 h 39 min

Bit rate                       : 3 000 kb/s

Width                          : 1 920 pixels

Height                         : 1 080 pixels

Display aspect ratio           : 16:9

Frame rate mode                : Constant

Frame rate                     : 25.000 FPS

Color space                    : YUV

Chroma subsampling             : 4:2:0

Bit depth                      : 8 bits

Scan type                      : Progressive

Bits/(Pixel*Frame)             : 0.058

Stream size                    : 3.35 GiB (96%)

Default                        : Yes

Forced                         : No

Audio

ID                             : 2

Format                         : AAC LC

Format/Info                    : Advanced Audio Codec Low Complexity

Codec ID                       : A_AAC-2

Duration                       : 2 h 39 min

Bit rate                       : 128 kb/s

Channel(s)                     : 2 channels

Channel layout                 : L R

Sampling rate                  : 48.0 kHz

Frame rate                     : 46.875 FPS (1024 SPF)

Compression mode               : Lossy

Stream size                    : 146 MiB (4%)

Language                       : Hindi

Default                        : Yes

Forced                         : No

DON 1978 REMASTERED Hindi 108Download Torrent Magnet

#DON #REMASTERED #Hindi