Django Unchained (2012) (1080 Full Torrent Magnet Download

Download Torrent Django Unchained (2012) (1080 Movie Full in HD Result. Movie Django Unchained (2012) (1080 Torrent Download full. Movie Django Unchained (2012) (1080 torrent Magnet Download Full. Django Unchained (2012) (1080 Full Movie Torrent Download And Magnet Download For your PC And Mobiles. Latest Movie Django Unchained (2012) (1080 Download Link In Bottom.

Torrent And Magnet Links Below

Media Information
I refuse to be limited to the sources that the studios let us have. As such I used AI Inference Software and days of processing to create a new source sharp and clean of compression artifacts. Enjoy this world exclusive 4K Source from the good people at UTR – JoyBell

Media Information

Code:

General
Format                                   : Matroska

Format version                           : Version 4 / Version 2

File size                                : 2.31 GiB

Duration                                 : 2 h 45 min

Overall bit rate                         : 2 001 kb/s

Encoded date                             : UTC 2021-01-27 21:45:43

Writing application                      : mkvmerge v52.0.0 (‘Secret For The Mad’) 64-bit

Writing library                          : libebml v1.4.1 + libmatroska v1.6.2

Cover                                    : Yes

Attachments                              : cover.jpg

Video
ID                                       : 1

Format                                   : HEVC

Format/Info                              : High Efficiency Video Coding

Format profile                           : Main [email protected]@Main

Codec ID                                 : V_MPEGH/ISO/HEVC

Duration                                 : 2 h 45 min

Bit rate                                 : 1 501 kb/s

Width                                    : 1 920 pixels

Height                                   : 800 pixels

Display aspect ratio                     : 2.40:1

Frame rate mode                          : Constant

Frame rate                               : 23.976 (24000/1001) FPS

Color space                              : YUV

Chroma subsampling                       : 4:2:0

Bit depth                                : 10 bits

Bits/(Pixel*Frame)                       : 0.041

Stream size                              : 1.73 GiB (75%)

Writing library                          : x265 3.2+9-971180b100f8:[Windows][GCC 9.2.0][64 bit] 10bit

Encoding settings                        : cpuid=1111039 / frame-threads=3 / numa-pools=12 / wpp / no-pmode / no-pme / no-psnr / ssim / log-level=2 / input-csp=1 / input-res=1920×800 / interlace=0 / total-frames=237890 / level-idc=0 / high-tier=1 / uhd-bd=0 / ref=4 / no-allow-non-conformance / no-repeat-headers / annexb / no-aud / no-hrd / info / hash=0 / no-temporal-layers / open-gop / min-keyint=23 / keyint=250 / gop-lookahead=0 / bframes=12 / b-adapt=2 / b-pyramid / bframe-bias=50 / rc-lookahead=80 / lookahead-slices=4 / scenecut=40 / radl=0 / no-splice / no-intra-refresh / ctu=64 / min-cu-size=8 / rect / no-amp / max-tu-size=32 / tu-inter-depth=1 / tu-intra-depth=1 / limit-tu=0 / rdoq-level=2 / dynamic-rd=0.00 / ssim-rd / signhide / no-tskip / nr-intra=0 / nr-inter=0 / constrained-intra / strong-intra-smoothing / max-merge=5 / limit-refs=3 / limit-modes / me=3 / subme=5 / merange=57 / temporal-mvp / no-frame-dup / no-hme / weightp / no-weightb / no-analyze-src-pics / deblock=0:0 / sao / no-sao-non-deblock / rd=4 / selective-sao=4 / early-skip / rskip / no-fast-intra / no-tskip-fast / no-cu-lossless / no-b-intra / splitrd-skip / rdpenalty=0 / psy-rd=3.50 / psy-rdoq=2.50 / no-rd-refine / no-lossless / cbqpoffs=0 / crqpoffs=0 / rc=abr / bitrate=1500 / qcomp=0.60 / qpstep=4 / stats-write=0 / stats-read=2 / cplxblur=20.0 / qblur=0.5 / ipratio=1.40 / pbratio=1.30 / aq-mode=3 / aq-strength=0.40 / cutree / zone-count=0 / no-strict-cbr / qg-size=32 / no-rc-grain / qpmax=69 / qpmin=0 / no-const-vbv / sar=0 / overscan=0 / videoformat=5 / range=0 / colorprim=2 / transfer=2 / colormatrix=2 / chromaloc=0 / display-window=0 / cll=0,0 / min-luma=0 / max-luma=1023 / log2-max-poc-lsb=8 / vui-timing-info / vui-hrd-info / slices=1 / no-opt-qp-pps / no-opt-ref-list-length-pps / multi-pass-opt-rps / scenecut-bias=0.05 / no-opt-cu-delta-qp / no-aq-motion / no-hdr / no-hdr-opt / no-dhdr10-opt / no-idr-recovery-sei / analysis-load / analysis-reuse-level=10 / scale-factor=0 / refine-intra=0 / refine-inter=0 / refine-mv=1 / refine-ctu-distortion=0 / limit-sao / ctu-info=0 / no-lowpass-dct / refine-analysis-type=0 / copy-pic=1 / max-ausize-factor=1.0 / no-dynamic-refine / no-single-sei / no-hevc-aq / no-svt / no-field / qp-adaptation-range=1.00

Default                                  : Yes

Forced                                   : No

Audio
ID                                       : 2

Format                                   : AC-3

Format/Info                              : Audio Coding 3

Mode extension                           : CM (complete main)

Format settings, Endianness              : Big

Codec ID                                 : A_AC3

Duration                                 : 2 h 45 min

Bit rate mode                            : Constant

Bit rate                                 : 384 kb/s

Channel(s)                               : 6 channels

Channel positions                        : Front: L C R, Side: L R, LFE

Sampling rate                            : 48.0 kHz

Frame rate                               : 31.250 FPS (1536 spf)

Bit depth                                : 16 bits

Compression mode                         : Lossy

Stream size                              : 454 MiB (19%)

Language                                 : English

Default                                  : No

Forced                                   : No

Subtitle #1
ID                                       : 3

Format                                   : PGS

Muxing mode                              : zlib

Codec ID                                 : S_HDMV/PGS

Codec ID/Info                            : Picture based subtitle format used on BDs/HD-DVDs

Duration                                 : 2 h 40 min

Bit rate                                 : 33.3 kb/s

Count of elements                        : 3750

Stream size                              : 38.3 MiB (2%)

Language                                 : English

Default                                  : No

Forced                                   : No

Subtitle #2
ID                                       : 4

Format                                   : VobSub

Muxing mode                              : zlib

Codec ID                                 : S_VOBSUB

Codec ID/Info                            : Picture based subtitle format used on DVDs

Duration                                 : 2 h 41 min

Bit rate                                 : 4 933 b/s

Count of elements                        : 1923

Stream size                              : 5.70 MiB (0%)

Language                                 : Arabic

Default                                  : No

Forced                                   : No

Subtitle #3
ID                                       : 5

Format                                   : VobSub

Muxing mode                              : zlib

Codec ID                                 : S_VOBSUB

Codec ID/Info                            : Picture based subtitle format used on DVDs

Duration                                 : 2 h 44 min

Bit rate                                 : 8 756 b/s

Count of elements                        : 1925

Stream size                              : 10.3 MiB (0%)

Language                                 : Bulgarian

Default                                  : No

Forced                                   : No

Subtitle #4
ID                                       : 6

Format                                   : VobSub

Muxing mode                              : zlib

Codec ID                                 : S_VOBSUB

Codec ID/Info                            : Picture based subtitle format used on DVDs

Duration                                 : 2 h 41 min

Bit rate                                 : 8 046 b/s

Count of elements                        : 1913

Stream size                              : 9.30 MiB (0%)

Language                                 : Croatian

Default                                  : No

Forced                                   : No

Subtitle #5
ID                                       : 7

Format                                   : VobSub

Muxing mode                              : zlib

Codec ID                                 : S_VOBSUB

Codec ID/Info                            : Picture based subtitle format used on DVDs

Duration                                 : 2 h 41 min

Bit rate                                 : 9 044 b/s

Count of elements                        : 1914

Stream size                              : 10.5 MiB (0%)

Language                                 : Czech

Default                                  : No

Forced                                   : No

Subtitle #6
ID                                       : 8

Format                                   : VobSub

Muxing mode                              : zlib

Codec ID                                 : S_VOBSUB

Codec ID/Info                            : Picture based subtitle format used on DVDs

Duration                                 : 2 h 41 min

Bit rate                                 : 8 517 b/s

Count of elements                        : 1522

Stream size                              : 9.85 MiB (0%)

Language                                 : Estonian

Default                                  : No

Forced                                   : No

Subtitle #7
ID                                       : 9

Format                                   : VobSub

Muxing mode                              : zlib

Codec ID                                 : S_VOBSUB

Codec ID/Info                            : Picture based subtitle format used on DVDs

Duration                                 : 2 h 41 min

Bit rate                                 : 10.1 kb/s

Count of elements                        : 1916

Stream size                              : 11.7 MiB (0%)

Language                                 : Greek

Default                                  : No

Forced                                   : No

Subtitle #8
ID                                       : 10

Format                                   : VobSub

Muxing mode                              : zlib

Codec ID                                 : S_VOBSUB

Codec ID/Info                            : Picture based subtitle format used on DVDs

Duration                                 : 2 h 41 min

Bit rate                                 : 7 411 b/s

Count of elements                        : 1957

Stream size                              : 8.57 MiB (0%)

Language                                 : Hebrew

Default                                  : No

Forced                                   : No

Subtitle #9
ID                                       : 11

Format                                   : VobSub

Muxing mode                              : zlib

Codec ID                                 : S_VOBSUB

Codec ID/Info                            : Picture based subtitle format used on DVDs

Duration                                 : 2 h 41 min

Bit rate                                 : 8 218 b/s

Count of elements                        : 1923

Stream size                              : 9.50 MiB (0%)

Language                                 : Hindi

Default                                  : No

Forced                                   : No

Subtitle #10
ID                                       : 12

Format                                   : VobSub

Muxing mode                              : zlib

Codec ID                                 : S_VOBSUB

Codec ID/Info                            : Picture based subtitle format used on DVDs

Duration                                 : 2 h 41 min

Bit rate                                 : 8 546 b/s

Count of elements                        : 1778

Stream size                              : 9.88 MiB (0%)

Language                                 : Hungarian

Default                                  : No

Forced                                   : No

Subtitle #11
ID                                       : 13

Format                                   : VobSub

Muxing mode                              : zlib

Codec ID                                 : S_VOBSUB

Codec ID/Info                            : Picture based subtitle format used on DVDs

Duration                                 : 2 h 41 min

Bit rate                                 : 9 760 b/s

Count of elements                        : 1854

Stream size                              : 11.3 MiB (0%)

Language                                 : Icelandic

Default                                  : No

Forced                                   : No

Subtitle #12
ID                                       : 14

Format                                   : VobSub

Muxing mode                              : zlib

Codec ID                                 : S_VOBSUB

Codec ID/Info                            : Picture based subtitle format used on DVDs

Duration                                 : 2 h 41 min

Bit rate                                 : 9 495 b/s

Count of elements                        : 1911

Stream size                              : 11.0 MiB (0%)

Language                                 : Lithuanian

Default                                  : No

Forced                                   : No

Subtitle #13
ID                                       : 15

Format                                   : VobSub

Muxing mode                              : zlib

Codec ID                                 : S_VOBSUB

Codec ID/Info                            : Picture based subtitle format used on DVDs

Duration                                 : 2 h 41 min

Bit rate                                 : 8 393 b/s

Count of elements                        : 1912

Stream size                              : 9.70 MiB (0%)

Language                                 : Polish

Default                                  : No

Forced                                   : No

Subtitle #14
ID                                       : 16

Format                                   : VobSub

Muxing mode                              : zlib

Codec ID                                 : S_VOBSUB

Codec ID/Info                            : Picture based subtitle format used on DVDs

Duration                                 : 2 h 44 min

Bit rate                                 : 9 753 b/s

Count of elements                        : 1986

Stream size                              : 11.5 MiB (0%)

Language                                 : Portuguese

Default                                  : No

Forced                                   : No

Subtitle #15
ID                                       : 17

Format                                   : VobSub

Muxing mode                              : zlib

Codec ID                                 : S_VOBSUB

Codec ID/Info                            : Picture based subtitle format used on DVDs

Duration                                 : 2 h 44 min

Bit rate                                 : 8 824 b/s

Count of elements                        : 1927

Stream size                              : 10.4 MiB (0%)

Language                                 : Romanian

Default                                  : No

Forced                                   : No

Subtitle #16
ID                                       : 18

Format                                   : VobSub

Muxing mode                              : zlib

Codec ID                                 : S_VOBSUB

Codec ID/Info                            : Picture based subtitle format used on DVDs

Duration                                 : 2 h 44 min

Bit rate                                 : 9 798 b/s

Count of elements                        : 1963

Stream size                              : 11.5 MiB (0%)

Language                                 : Russian

Default                                  : No

Forced                                   : No

Subtitle #17
ID                                       : 19

Format                                   : VobSub

Muxing mode                              : zlib

Codec ID                                 : S_VOBSUB

Codec ID/Info                            : Picture based subtitle format used on DVDs

Duration                                 : 2 h 41 min

Bit rate                                 : 8 435 b/s

Count of elements                        : 1896

Stream size                              : 9.75 MiB (0%)

Language                                 : Serbian

Default                                  : No

Forced                                   : No

Subtitle #18
ID                                       : 20

Format                                   : VobSub

Muxing mode                              : zlib

Codec ID                                 : S_VOBSUB

Codec ID/Info                            : Picture based subtitle format used on DVDs

Duration                                 : 2 h 41 min

Bit rate                                 : 7 849 b/s

Count of elements                        : 1917

Stream size                              : 9.07 MiB (0%)

Language                                 : Slovak

Default                                  : No

Forced                                   : No

Subtitle #19
ID                                       : 21

Format                                   : VobSub

Muxing mode                              : zlib

Codec ID                                 : S_VOBSUB

Codec ID/Info                            : Picture based subtitle format used on DVDs

Duration                                 : 2 h 41 min

Bit rate                                 : 8 973 b/s

Count of elements                        : 1919

Stream size                              : 10.4 MiB (0%)

Language                                 : Slovenian

Default                                  : No

Forced                                   : No

Subtitle #20
ID                                       : 22

Format                                   : VobSub

Muxing mode                              : zlib

Codec ID                                 : S_VOBSUB

Codec ID/Info                            : Picture based subtitle format used on DVDs

Duration                                 : 2 h 41 min

Bit rate                                 : 9 048 b/s

Count of elements                        : 1949

Stream size                              : 10.5 MiB (0%)

Language                                 : Turkish

Default                                  : No

Forced                                   : No

Subtitle #21
ID                                       : 23

Format                                   : VobSub

Muxing mode                              : zlib

Codec ID                                 : S_VOBSUB

Codec ID/Info                            : Picture based subtitle format used on DVDs

Duration                                 : 3 min 8 s

Bit rate                                 : 5 829 b/s

Count of elements                        : 26

Stream size                              : 134 KiB (0%)

Language                                 : Ukrainian

Default                                  : No

Forced                                   : No

Subtitle #22
ID                                       : 24

Format                                   : UTF-8

Codec ID                                 : S_TEXT/UTF8

Codec ID/Info                            : UTF-8 Plain Text

Duration                                 : 2 h 41 min

Bit rate                                 : 77 b/s

Count of elements                        : 1901

Stream size                              : 92.3 KiB (0%)

Language                                 : Arabic

Default                                  : No

Forced                                   : No

Subtitle #23
ID                                       : 25

Format                                   : UTF-8

Codec ID                                 : S_TEXT/UTF8

Codec ID/Info                            : UTF-8 Plain Text

Duration                                 : 2 h 45 min

Bit rate                                 : 161 b/s

Count of elements                        : 1916

Stream size                              : 195 KiB (0%)

Language                                 : Bengali

Default                                  : No

Forced                                   : No

Subtitle #24
ID                                       : 26

Format                                   : UTF-8

Codec ID                                 : S_TEXT/UTF8

Codec ID/Info                            : UTF-8 Plain Text

Duration                                 : 2 h 45 min

Bit rate                                 : 54 b/s

Count of elements                        : 1723

Stream size                              : 65.5 KiB (0%)

Language                                 : Chinese

Default                                  : No

Forced                                   : No

Subtitle #25
ID                                       : 27

Format                                   : UTF-8

Codec ID                                 : S_TEXT/UTF8

Codec ID/Info                            : UTF-8 Plain Text

Duration                                 : 2 h 42 min

Bit rate                                 : 53 b/s

Count of elements                        : 1886

Stream size                              : 63.0 KiB (0%)

Language                                 : Portuguese

Default                                  : No

Forced                                   : No

Subtitle #26
ID                                       : 28

Format                                   : UTF-8

Codec ID                                 : S_TEXT/UTF8

Codec ID/Info                            : UTF-8 Plain Text

Duration                                 : 2 h 41 min

Bit rate                                 : 52 b/s

Count of elements                        : 1863

Stream size                              : 62.4 KiB (0%)

Language                                 : Danish

Default                                  : No

Forced                                   : No

Subtitle #27
ID                                       : 29

Format                                   : UTF-8

Codec ID                                 : S_TEXT/UTF8

Codec ID/Info                            : UTF-8 Plain Text

Duration                                 : 2 h 41 min

Bit rate                                 : 52 b/s

Count of elements                        : 1506

Stream size                              : 62.5 KiB (0%)

Language                                 : Dutch

Default                                  : No

Forced                                   : No

Subtitle #28
ID                                       : 30

Format                                   : UTF-8

Codec ID                                 : S_TEXT/UTF8

Codec ID/Info                            : UTF-8 Plain Text

Duration                                 : 2 h 40 min

Bit rate                                 : 90 b/s

Count of elements                        : 1928

Stream size                              : 107 KiB (0%)

Language                                 : Persian

Default                                  : No

Forced                                   : No

Subtitle #29
ID                                       : 31

Format                                   : UTF-8

Codec ID                                 : S_TEXT/UTF8

Codec ID/Info                            : UTF-8 Plain Text

Duration                                 : 2 h 41 min

Bit rate                                 : 47 b/s

Count of elements                        : 2047

Stream size                              : 56.4 KiB (0%)

Language                                 : Finnish

Default                                  : No

Forced                                   : No

Subtitle #30
ID                                       : 32

Format                                   : UTF-8

Codec ID                                 : S_TEXT/UTF8

Codec ID/Info                            : UTF-8 Plain Text

Duration                                 : 2 h 44 min

Bit rate                                 : 71 b/s

Count of elements                        : 1997

Stream size                              : 85.7 KiB (0%)

Language                                 : French

Default                                  : No

Forced                                   : No

Subtitle #31
ID                                       : 33

Format                                   : UTF-8

Codec ID                                 : S_TEXT/UTF8

Codec ID/Info                            : UTF-8 Plain Text

Duration                                 : 2 h 37 min

Bit rate                                 : 64 b/s

Count of elements                        : 1913

Stream size                              : 74.0 KiB (0%)

Language                                 : German

Default                                  : No

Forced                                   : No

Subtitle #32
ID                                       : 34

Format                                   : UTF-8

Codec ID                                 : S_TEXT/UTF8

Codec ID/Info                            : UTF-8 Plain Text

Duration                                 : 2 h 41 min

Bit rate                                 : 98 b/s

Count of elements                        : 1912

Stream size                              : 116 KiB (0%)

Language                                 : Greek

Default                                  : No

Forced                                   : No

Subtitle #33
ID                                       : 35

Format                                   : UTF-8

Codec ID                                 : S_TEXT/UTF8

Codec ID/Info                            : UTF-8 Plain Text

Duration                                 : 2 h 42 min

Bit rate                                 : 86 b/s

Count of elements                        : 2290

Stream size                              : 104 KiB (0%)

Language                                 : Hebrew

Default                                  : No

Forced                                   : No

Subtitle #34
ID                                       : 36

Format                                   : UTF-8

Codec ID                                 : S_TEXT/UTF8

Codec ID/Info                            : UTF-8 Plain Text

Duration                                 : 2 h 42 min

Bit rate                                 : 57 b/s

Count of elements                        : 2049

Stream size                              : 68.2 KiB (0%)

Language                                 : Italian

Default                                  : No

Forced                                   : No

Subtitle #35
ID                                       : 37

Format                                   : UTF-8

Codec ID                                 : S_TEXT/UTF8

Codec ID/Info                            : UTF-8 Plain Text

Duration                                 : 2 h 41 min

Bit rate                                 : 63 b/s

Count of elements                        : 1912

Stream size                              : 75.3 KiB (0%)

Language                                 : Malay

Default                                  : No

Forced                                   : No

Subtitle #36
ID                                       : 38

Format                                   : UTF-8

Codec ID                                 : S_TEXT/UTF8

Codec ID/Info                            : UTF-8 Plain Text

Duration                                 : 2 h 41 min

Bit rate                                 : 48 b/s

Count of elements                        : 1819

Stream size                              : 57.3 KiB (0%)

Language                                 : Norwegian

Default                                  : No

Forced                                   : No

Subtitle #37
ID                                       : 39

Format                                   : UTF-8

Codec ID                                 : S_TEXT/UTF8

Codec ID/Info                            : UTF-8 Plain Text

Duration                                 : 2 h 44 min

Bit rate                                 : 53 b/s

Count of elements                        : 1919

Stream size                              : 64.8 KiB (0%)

Language                                 : Romanian

Default                                  : No

Forced                                   : No

Subtitle #38
ID                                       : 40

Format                                   : UTF-8

Codec ID                                 : S_TEXT/UTF8

Codec ID/Info                            : UTF-8 Plain Text

Duration                                 : 2 h 41 min

Bit rate                                 : 47 b/s

Count of elements                        : 1390

Stream size                              : 56.3 KiB (0%)

Language                                 : Swedish

Default                                  : No

Forced                                   : No

Subtitle #39
ID                                       : 41

Format                                   : UTF-8

Codec ID                                 : S_TEXT/UTF8

Codec ID/Info                            : UTF-8 Plain Text

Duration                                 : 2 h 45 min

Bit rate                                 : 117 b/s

Count of elements                        : 1916

Stream size                              : 142 KiB (0%)

Language                                 : Thai

Default                                  : No

Forced                                   : No

Subtitle #40
ID                                       : 42

Format                                   : UTF-8

Codec ID                                 : S_TEXT/UTF8

Codec ID/Info                            : UTF-8 Plain Text

Duration                                 : 2 h 44 min

Bit rate                                 : 69 b/s

Count of elements                        : 1909

Stream size                              : 83.8 KiB (0%)

Language                                 : Vietnamese

Default                                  : No

Forced                                   : No

Menu
00:00:00.000                             : en:Chapter 01

00:03:36.132                             : en:Chapter 02

00:12:48.142                             : en:Chapter 03

00:18:49.711                             : en:Chapter 04

00:26:48.148                             : en:Chapter 05

00:31:44.444                             : en:Chapter 06

00:40:26.799                             : en:Chapter 07

00:46:05.554                             : en:Chapter 08

00:52:36.903                             : en:Chapter 09

00:58:12.780                             : en:Chapter 10

01:02:19.944                             : en:Chapter 11

01:12:13.120                             : en:Chapter 12

01:18:36.169                             : en:Chapter 13

01:26:08.329                             : en:Chapter 14

01:34:49.475                             : en:Chapter 15

01:40:52.046                             : en:Chapter 16

01:45:33.785                             : en:Chapter 17

01:50:00.802                             : en:Chapter 18

01:55:03.688                             : en:Chapter 19

02:03:55.386                             : en:Chapter 20

02:08:14.520                             : en:Chapter 21

02:14:14.046                             : en:Chapter 22

02:17:28.907                             : en:Chapter 23

02:22:32.627                             : en:Chapter 24

02:26:28.446                             : en:Chapter 25

02:33:00.129                             : en:Chapter 26

02:35:41.665                             : en:Chapter 27

02:41:30.931                             : en:Chapter 28

Source Information

Code:

Release:
Django Unchained (2012) 2160p.BluRay.AI.DTS.UTR.mkv (75.98 GBs)

Code:


Note From UTR
Whilst we are happy for our releases to be re-posted on a platform we aren’t on, please do so in an ‘as-is’ format. We ask that you do not create a new torrent, include all descriptions you see above including the UTR logo, tags, notes and screenshots. If you’d like to become a permanent poster on a website we don’t post to, feel free to get in contact with a UTR member.

If possible please donate for seedboxes.

BTC – 1QA5fum5AyXvWzdVCkQzUNvw3Ef15fHRaR

Monero – 8AuksPSzY7fen3HHT1a2342PgVy4J93MKfXG3AAcayV76miTyJ3sNfn38srwrpLirGfeR5DwhTL8GW8pdQgT7bZcJ25ynMx

Dash – Xh4mNs6uwZdpCEX2HSEVwGvPD7yKxZ1Ccd

Ethereum – 0x51c06c94e74c16735a7a6e841ad29fc90a84eb1f

Django Unchained (2012) (1080Download Torrent Magnet

#Django #Unchained