Dirty Dancing (1987) 2160p HD Full Torrent Magnet Download

Download Torrent Dirty Dancing (1987) 2160p HD Movie Full in HD Result. Movie Dirty Dancing (1987) 2160p HD Torrent Download full. Movie Dirty Dancing (1987) 2160p HD torrent Magnet Download Full. Dirty Dancing (1987) 2160p HD Full Movie Torrent Download And Magnet Download For your PC And Mobiles. Latest Movie Dirty Dancing (1987) 2160p HD Download Link In Bottom.

Torrent And Magnet Links Below

www.imdb.com/title/tt0092890

Spending the summer at a Catskills resort with her family, Frances “Baby” Houseman falls in love with the camp’s dance instructor, Johnny Castle.

Source: NOGRP (web)

Format : Matroska

Format version : Version 4

File size : 2.39 GiB

Duration : 1 h 40 min

Overall bit rate : 3 402 kb/s

Writing application : HandBrake 1.3.3 2020061300

Writing library : Lavf58.29.100

Video

ID : 1

Format : HEVC

Format/Info : High Efficiency Video Coding

Format profile : Main [email protected]@High

Codec ID : V_MPEGH/ISO/HEVC

Duration : 1 h 40 min

Bit rate : 3 015 kb/s

Width : 3 840 pixels

Height : 2 080 pixels

Display aspect ratio : 1.85:1

Frame rate mode : Constant

Frame rate : 23.976 (24000/1001) FPS

Color space : YUV

Chroma subsampling : 4:2:0

Bit depth : 10 bits

Bits/(Pixel*Frame) : 0.016

Stream size : 2.12 GiB (89%)

Writing library : x265 3.2.1+1-b5c86a64bbbe:[Windows][GCC 9.2.0][64 bit] 10bit

Color range : Full

Color primaries : BT.2020

Transfer characteristics : PQ

Matrix coefficients : BT.2020 non-constant

Audio

ID : 2

Format : AC-3

Format/Info : Audio Coding 3

Commercial name : Dolby Digital

Codec ID : A_AC3

Duration : 1 h 40 min

Bit rate mode : Constant

Bit rate : 320 kb/s

Channel(s) : 6 channels

Channel layout : L R C LFE Ls Rs

Sampling rate : 48.0 kHz

Frame rate : 31.250 FPS (1536 SPF)

Compression mode : Lossy

Delay relative to video : -5 ms

Stream size : 230 MiB (9%)

Title : English

Language : English

Text

Language : English

Default : No

Forced : No

Dirty Dancing (1987) 2160p HDDownload Torrent Magnet

#Dirty #Dancing #2160p