Dharmatma 1935 Marathi 1080p Full Torrent Magnet Download

Download Torrent Dharmatma 1935 Marathi 1080p Movie Full in HD Result. Movie Dharmatma 1935 Marathi 1080p Torrent Download full. Movie Dharmatma 1935 Marathi 1080p torrent Magnet Download Full. Dharmatma 1935 Marathi 1080p Full Movie Torrent Download And Magnet Download For your PC And Mobiles. Latest Movie Dharmatma 1935 Marathi 1080p Download Link In Bottom.

Torrent And Magnet Links Below











General

Complete name : Dharmatma 1935 Marathi 1080p Web-DL x264 AAC [TMB].mkv

Format : Matroska

Format version : Version 4

File size : 2.86 GiB

Duration : 2 h 10 min

Overall bit rate : 3 130 kb/s

Video

Format : AVC

Format/Info : Advanced Video Codec

Format profile : [email protected]
Format settings : CABAC / 4 Ref Frames

Format settings, CABAC : Yes

Format settings, Reference : 4 frames

Codec ID : V_MPEG4/ISO/AVC

Duration : 2 h 10 min

Bit rate : 3 000 kb/s

Width : 1 920 pixels

Height : 1 080 pixels

Display aspect ratio : 16:9

Frame rate mode : Constant

Frame rate : 25.000 FPS

Color space : YUV

Chroma subsampling : 4:2:0

Bit depth : 8 bits

Scan type : Progressive

Bits/(Pixel*Frame) : 0.058

Stream size : 2.74 GiB (96%)

Audio

Format : AAC LC

Format/Info : Advanced Audio Codec Low Complexity

Codec ID : A_AAC-2

Duration : 2 h 10 min

Bit rate : 128 kb/s

Channel(s) : 2 channels

Channel layout : L R

Sampling rate : 48.0 kHz

Frame rate : 46.875 FPS (1024 SPF)

Compression mode : Lossy

Delay relative to video : -80 ms

Stream size : 120 MiB (4%)

Uploaded & Shared by TMB

Seeding 24×7… Extreme Seeding…

Enjoy!

Dharmatma 1935 Marathi 1080p Download Torrent Magnet

#Dharmatma #Marathi #1080p