Désiré (1995) DVDrip (640×336 Full Torrent Magnet Download

Download Torrent Désiré (1995) DVDrip (640×336 Movie Full in HD Result. Movie Désiré (1995) DVDrip (640×336 Torrent Download full. Movie Désiré (1995) DVDrip (640×336 torrent Magnet Download Full. Désiré (1995) DVDrip (640×336 Full Movie Torrent Download And Magnet Download For your PC And Mobiles. Latest Movie Désiré (1995) DVDrip (640×336 Download Link In Bottom.

Torrent And Magnet Links Below

IMDB

Code:


General

Complete name : Désiré.(1995).DVDrip.(640x336p).AAC.[Borsalino].mkv

Format : Matroska

Format version : Version 4

File size : 426 MiB

Duration : 1 h 30 min

Overall bit rate : 659 kb/s

Movie name : Désiré.(1995).DVDrip.(640x336p).AAC.[Borsalino]
Writing application : mkvmerge v56.1.0 (‘My Friend’) 64-bit

Writing library : libebml v1.4.2 + libmatroska v1.6.4

Video

ID : 1

Format : AVC

Format/Info : Advanced Video Codec

Format profile : [email protected]
Format settings : CABAC / 4 Ref Frames

Format settings, CABAC : Yes

Format settings, Reference frames : 4 frames

Codec ID : V_MPEG4/ISO/AVC

Duration : 1 h 30 min

Bit rate : 591 kb/s

Width : 640 pixels

Height : 336 pixels

Display aspect ratio : 1.905

Frame rate mode : Constant

Frame rate : 25.000 FPS

Color space : YUV

Chroma subsampling : 4:2:0

Bit depth : 8 bits

Scan type : Progressive

Bits/(Pixel*Frame) : 0.110

Stream size : 382 MiB (90%)

Title : French

Language : French

Default : Yes

Forced : No

Audio

ID : 2

Format : AAC LC

Format/Info : Advanced Audio Codec Low Complexity

Codec ID : A_AAC-2

Duration : 1 h 30 min

Bit rate : 66.2 kb/s

Channel(s) : 2 channels

Channel layout : L R

Sampling rate : 44.1 kHz

Frame rate : 43.066 FPS (1024 SPF)

Compression mode : Lossy

Stream size : 42.4 MiB (10%)

Title : French

Language : French

Default : Yes

Forced : No

Spoken language

Subtitles (srt files)

None







Désiré (1995) DVDrip (640x336Download Torrent Magnet

#Désiré #DVDrip #640×336