De.Patrick.2019.1080p.WEB-DL. Full Torrent Magnet Download

Download Torrent De.Patrick.2019.1080p.WEB-DL. Movie Full in HD Result. Movie De.Patrick.2019.1080p.WEB-DL. Torrent Download full. Movie De.Patrick.2019.1080p.WEB-DL. torrent Magnet Download Full. De.Patrick.2019.1080p.WEB-DL. Full Movie Torrent Download And Magnet Download For your PC And Mobiles. Latest Movie De.Patrick.2019.1080p.WEB-DL. Download Link In Bottom.

Torrent And Magnet Links Below

Release: De.Patrick.2019.1080p.WEB-DL.x264.AC3.HORiZON-ArtSubs

IMDB: https://www.imdb.com/title/tt7618604

Subtitle: English (soft)

Plot: De Patrick is a family drama about people’s peculiarities, about letting go and being happy with who you are: 39-year-old Patrick lives with his parents on a naturist campsite. When his domineering father Rudy dies he finds himself in charge of the campsite, however he has other things on his mind. He has lost his favorite hammer. The long term camp guests want him to get a grip on his life, but he is determined to find his hammer. His search becomes an existential quest.

General

Complete name : De.Patrick.2019.1080p.WEB-DL.x264.AC3.HORiZON-ArtSubs.mkv

Format : Matroska

Format version : Version 4

File size : 2.67 GiB

Duration : 1 h 35 min

Overall bit rate : 3 981 kb/s

Encoded date : UTC 2020-11-24 21:06:31

Writing application : mkvmerge v50.0.0 (‘Awakenings’) 64-bit

Writing library : libebml v1.4.0 + libmatroska v1.6.2

Video

ID : 1

Format : AVC

Format/Info : Advanced Video Codec

Format profile : [email protected]
Format settings : CABAC / 4 Ref Frames

Format settings, CABAC : Yes

Format settings, Reference : 4 frames

Codec ID : V_MPEG4/ISO/AVC

Duration : 1 h 35 min

Bit rate : 3 600 kb/s

Width : 1 916 pixels

Height : 800 pixels

Display aspect ratio : 2.40:1

Frame rate mode : Constant

Frame rate : 24.000 FPS

Color space : YUV

Chroma subsampling : 4:2:0

Bit depth : 8 bits

Scan type : Progressive

Bits/(Pixel*Frame) : 0.098

Stream size : 2.41 GiB (90%)

Writing library : x264 core 157 r2935 545de2f

Encoding settings : cabac=1 / ref=4 / deblock=1:-2:-2 / analyse=0x3:0x133 / me=umh / subme=10 / psy=1 / psy_rd=1.00:0.25 / mixed_ref=1 / me_range=24 / chroma_me=1 / trellis=2 / 8x8dct=1 / cqm=0 / deadzone=6,6 / fast_pskip=1 / chroma_qp_offset=-4 / threads=6 / lookahead_threads=1 / sliced_threads=0 / nr=0 / decimate=0 / interlaced=0 / bluray_compat=0 / constrained_intra=0 / bframes=8 / b_pyramid=2 / b_adapt=2 / b_bias=0 / direct=3 / weightb=1 / open_gop=0 / weightp=2 / keyint=240 / keyint_min=24 / scenecut=40 / intra_refresh=0 / rc_lookahead=60 / rc=2pass / mbtree=1 / bitrate=3600 / ratetol=1.0 / qcomp=0.75 / qpmin=0 / qpmax=69 / qpstep=4 / cplxblur=20.0 / qblur=0.5 / vbv_maxrate=25000 / vbv_bufsize=78125 / nal_hrd=none / filler=0 / ip_ratio=1.10 / aq=3:1.20

Default : Yes

Forced : No

Color range : Limited

Color primaries : BT.709

Transfer characteristics : BT.709

Matrix coefficients : BT.709

Audio

ID : 2

Format : AC-3

Format/Info : Audio Coding 3

Commercial name : Dolby Digital

Codec ID : A_AC3

Duration : 1 h 35 min

Bit rate mode : Constant

Bit rate : 384 kb/s

Channel(s) : 6 channels

Channel layout : L R C LFE Ls Rs

Sampling rate : 48.0 kHz

Frame rate : 31.250 FPS (1536 SPF)

Compression mode : Lossy

Delay relative to video : -42 ms

Stream size : 264 MiB (10%)

Language : Dutch

Service kind : Complete Main

Default : Yes

Forced : No

Text

ID : 3

Format : UTF-8

Codec ID : S_TEXT/UTF8

Codec ID/Info : UTF-8 Plain Text

Duration : 1 h 32 min

Bit rate : 34 b/s

Count of elements : 654

Stream size : 23.1 KiB (0%)

Language : English

Default : Yes

Forced : No

SCREENSHOTS:





De.Patrick.2019.1080p.WEB-DL.Download Torrent Magnet

#DePatrick20191080pWEBDL