Daylight.1996.REMASTERED.BRRi Full Torrent Magnet Download

Download Torrent Daylight.1996.REMASTERED.BRRi Movie Full in HD Result. Movie Daylight.1996.REMASTERED.BRRi Torrent Download full. Movie Daylight.1996.REMASTERED.BRRi torrent Magnet Download Full. Daylight.1996.REMASTERED.BRRi Full Movie Torrent Download And Magnet Download For your PC And Mobiles. Latest Movie Daylight.1996.REMASTERED.BRRi Download Link In Bottom.

Torrent And Magnet Links Below

Daylight.1996.REMASTERED.BRRip.XviD.B4ND1T69

Director: Rob Cohen

Writer: Leslie Bohem

Stars: Sylvester Stallone, Amy Brenneman, Viggo Mortensen

Plot/Story:

Disaster in a New York tunnel as explosions collapse both ends of it. One hero tries to help the people inside find their way to safety.

General

Complete name : Daylight.1996.REMASTERED.BRRip.XviD.B4ND1T69.avi

Format : AVI

Format/Info : Audio Video Interleave

File size : 1.39 GiB

Duration : 1 h 54 min

Overall bit rate : 1 741 kb/s

Subtitles : Yes…Included(HI)

Video

ID : 0

Format : MPEG-4 Visual

Format profile : Advanced [email protected]
Format settings, BVOP : 2

Format settings, QPel : No

Format settings, GMC : No warppoints

Format settings, Matrix : Default (H.263)

Codec ID : XVID

Codec ID/Hint : XviD

Duration : 1 h 54 min

Bit rate : 1 600 kb/s

Width : 720 pixels

Height : 390 pixels

Display aspect ratio : 1.85:1

Frame rate : 23.976 (24000/1001) FPS

Color space : YUV

Chroma subsampling : 4:2:0

Bit depth : 8 bits

Scan type : Progressive

Compression mode : Lossy

Bits/(Pixel*Frame) : 0.238

Stream size : 1.28 GiB (92%)

Writing library : XviD 64

Audio

ID : 1

Format : MPEG Audio

Format version : Version 1

Format profile : Layer 3

Mode : Joint stereo

Mode extension : MS Stereo

Codec ID : 55

Codec ID/Hint : MP3

Duration : 1 h 5 min

Source duration : 1 h 54 min

Bit rate mode : Constant

Bit rate : 128 kb/s

Channel(s) : 2 channels

Sampling rate : 48.0 kHz

Compression mode : Lossy

Stream size : 105 MiB (7%)

Alignment : Aligned on interleaves

Interleave, duration : 24 ms (0.58 video frame)

Screenshots:









Please Seed For As Long As Possible

Or At Least 1:1 Ratio…Thanks

Enjoy Peeps

Daylight.1996.REMASTERED.BRRiDownload Torrent Magnet

#Daylight1996REMASTEREDBRRi