Dawn Of The Dead 2004 x264 72 Full Torrent Magnet Download

Download Torrent Dawn Of The Dead 2004 x264 72 Movie Full in HD Result. Movie Dawn Of The Dead 2004 x264 72 Torrent Download full. Movie Dawn Of The Dead 2004 x264 72 torrent Magnet Download Full. Dawn Of The Dead 2004 x264 72 Full Movie Torrent Download And Magnet Download For your PC And Mobiles. Latest Movie Dawn Of The Dead 2004 x264 72 Download Link In Bottom.

Torrent And Magnet Links Below

Greets

Admin , Moderator , Noir, Ex0duS5150, theeshiznit, MisterQ, UserHEVC, miok, Silmarillion, Mr. Blue, MaDHeX and many more ;

Join Us On TeleGram

https://t.me/sahigopi

Dawn Of The Dead 2004 x264 720p Esub BluRay Dual Audio English Hindi THE GOPI SAHI

Format                         : Matroska

Format version                 : Version 4

File size                      : 845 MiB

Duration                       : 1 h 49 min

Overall bit rate               : 1 082 kb/s

Movie name                     : Dawn Of The Dead 2006 GOPI SAHI

Encoded date                   : UTC 2021-04-23 05:39:31

Writing application            : mkvmerge v52.0.0 (‘Secret For The Mad’) 64-bit

Video

ID                             : 1

Format                         : AVC

Format/Info                    : Advanced Video Codec

Format profile                 : [email protected]
Format settings                : CABAC / 5 Ref Frames

Format settings, CABAC         : Yes

Format settings, Reference fra : 5 frames

Codec ID                       : V_MPEG4/ISO/AVC

Duration                       : 1 h 46 min

Bit rate                       : 899 kb/s

Width                          : 1 280 pixels

Height                         : 544 pixels

Display aspect ratio           : 2.35:1

Frame rate mode                : Constant

Frame rate                     : 23.976 (24000/1001) FPS

Color space                    : YUV

Chroma subsampling             : 4:2:0

Bit depth                      : 8 bits

Scan type                      : Progressive

Bits/(Pixel*Frame)             : 0.054

Stream size                    : 685 MiB (81%)

Title                          : GOPI SAHI

Writing library                : x264 core 157 r2935 545de2f

Audio #1

ID                             : 2

Format                         : AAC LC

Format/Info                    : Advanced Audio Codec Low Complexity

Codec ID                       : A_AAC-2

Duration                       : 1 h 49 min

Bit rate                       : 96.0 kb/s

Channel(s)                     : 2 channels

Channel layout                 : L R

Sampling rate                  : 48.0 kHz

Frame rate                     : 46.875 FPS (1024 SPF)

Compression mode               : Lossy

Delay relative to video        : -21 ms

Stream size                    : 75.3 MiB (9%)

Title                          : GOPI SAHI

Language                       : Hindi

Default                        : Yes

Forced                         : No

Audio #2

ID                             : 3

Format                         : AAC LC

Format/Info                    : Advanced Audio Codec Low Complexity

Codec ID                       : A_AAC-2

Duration                       : 1 h 49 min

Bit rate                       : 96.0 kb/s

Channel(s)                     : 2 channels

Channel layout                 : L R

Sampling rate                  : 48.0 kHz

Frame rate                     : 46.875 FPS (1024 SPF)

Compression mode               : Lossy

Delay relative to video        : -21 ms

Stream size                    : 75.3 MiB (9%)

Title                          : GOPI SAHI

Language                       : English

Default                        : No

Forced                         : No

Text

ID                             : 4

Format                         : PGS

Muxing mode                    : zlib

Codec ID                       : S_HDMV/PGS

Codec ID/Info                  : Picture based subtitle format used on BDs/HD-DVDs

Duration                       : 1 h 46 min

Bit rate                       : 31.2 kb/s

Count of elements              : 2370

Stream size                    : 23.8 MiB (3%)

Title                          : GOPI SAHI

Language                       : English

Default                        : Yes

Forced                         : No

Menu

00:00:00.000                   : :Chapter 1

00:04:29.561                   : :Chapter 2

00:10:39.097                   : :Chapter 3

00:13:15.670                   : :Chapter 4

00:19:43.224                   : :Chapter 5

00:23:27.281                   : :Chapter 6

00:26:35.594                   : :Chapter 7

00:33:07.027                   : :Chapter 8

00:42:28.046                   : :Chapter 9

00:47:35.853                   : :Chapter 10

00:56:29.720                   : :Chapter 11

01:01:36.735                   : :Chapter 12

01:08:48.416                   : :Chapter 13

01:15:22.852                   : :Chapter 14

01:20:17.104                   : :Chapter 15

01:24:15.342                   : :Chapter 16

01:30:03.732                   : :Chapter 17

01:33:27.685                   : :Chapter 18

01:39:47.899                   : :Chapter 19

01:44:36.937                   : :Chapter 20

Dawn Of The Dead 2004 x264 72Download Torrent Magnet

#Dawn #Dead #x264