Dancing Queens 2021 720p NF W Full Torrent Magnet Download

Download Torrent Dancing Queens 2021 720p NF W Movie Full in HD Result. Movie Dancing Queens 2021 720p NF W Torrent Download full. Movie Dancing Queens 2021 720p NF W torrent Magnet Download Full. Dancing Queens 2021 720p NF W Full Movie Torrent Download And Magnet Download For your PC And Mobiles. Latest Movie Dancing Queens 2021 720p NF W Download Link In Bottom.

Torrent And Magnet Links Below

Dancing Queens 2021 720p NF WEB-DL AC3 5.1 x264 – SunGeorge

Quote:

The Family Man S02 720p WEB-DL AC3 5.1 x264 – SunGeorge



Code:

General

Complete name : Dancing.Queens.2021.720p.NF.WEB-DL.AC3.5.1.x264.mkv

Format : Matroska

Format version : Version 4

File size : 1.26 GiB

Duration : 1 h 51 min

Overall bit rate : 1 621 kb/s

Movie name : MovieAIO.us

Encoded date : UTC 2021-06-04 05:13:44

Writing application : mkvmerge v57.0.0 (‘Till The End’) 64-bit

Writing library : libebml v1.4.2 + libmatroska v1.6.4

Video

ID : 1

Format : AVC

Format/Info : Advanced Video Codec

Format profile : [email protected]
Format settings : CABAC / 4 Ref Frames

Format settings, CABAC : Yes

Format settings, Reference frames : 4 frames

Codec ID : V_MPEG4/ISO/AVC

Duration : 1 h 51 min

Bit rate : 1 369 kb/s

Width : 1 274 pixels

Height : 720 pixels

Display aspect ratio : 16:9

Frame rate mode : Variable

Frame rate : 24.000 FPS

Color space : YUV

Chroma subsampling : 4:2:0

Bit depth : 8 bits

Scan type : Progressive

Bits/(Pixel*Frame) : 0.062

Stream size : 1.06 GiB (84%)

Title : MovieAIO.us

Writing library : x264 core 155 r2917 0a84d98

Encoding settings : cabac=1 / ref=1 / deblock=1:0:0 / analyse=0x3:0x3 / me=dia / subme=1 / psy=1 / psy_rd=1.00:0.00 / mixed_ref=0 / me_range=16 / chroma_me=1 / trellis=0 / 8x8dct=1 / cqm=0 / deadzone=21,11 / fast_pskip=1 / chroma_qp_offset=0 / threads=22 / lookahead_threads=3 / sliced_threads=0 / nr=0 / decimate=1 / interlaced=0 / bluray_compat=0 / constrained_intra=0 / bframes=3 / b_pyramid=2 / b_adapt=1 / b_bias=0 / direct=1 / weightb=1 / open_gop=0 / weightp=1 / keyint=250 / keyint_min=25 / scenecut=40 / intra_refresh=0 / rc=abr / mbtree=0 / bitrate=1369 / ratetol=1.0 / qcomp=0.60 / qpmin=0 / qpmax=69 / qpstep=4 / ip_ratio=1.40 / pb_ratio=1.30 / aq=1:1.00

Default : Yes

Forced : No

Audio

ID : 2

Format : AC-3

Format/Info : Audio Coding 3

Commercial name : Dolby Digital

Codec ID : A_AC3

Duration : 1 h 51 min

Bit rate mode : Constant

Bit rate : 256 kb/s

Channel(s) : 6 channels

Channel layout : L R C LFE Ls Rs

Sampling rate : 48.0 kHz

Frame rate : 31.250 FPS (1536 SPF)

Compression mode : Lossy

Stream size : 204 MiB (16%)

Title : British English

Service kind : Complete Main

Default : Yes

Forced : No

Text #1

ID : 3

Format : UTF-8

Codec ID : S_TEXT/UTF8

Codec ID/Info : UTF-8 Plain Text

Duration : 1 h 47 min

Bit rate : 57 b/s

Count of elements : 1508

Stream size : 45.3 KiB (0%)

Title : English

Language : English

Default : No

Forced : No

Text #2

ID : 4

Format : UTF-8

Codec ID : S_TEXT/UTF8

Codec ID/Info : UTF-8 Plain Text

Duration : 1 h 47 min

Bit rate : 57 b/s

Count of elements : 1508

Stream size : 45.3 KiB (0%)

Title : English

Language : English

Default : No

Forced : No

Text #3

ID : 5

Format : UTF-8

Codec ID : S_TEXT/UTF8

Codec ID/Info : UTF-8 Plain Text

Duration : 1 h 50 min

Bit rate : 102 b/s

Count of elements : 1522

Stream size : 82.5 KiB (0%)

Title : Arabic

Language : Arabic

Default : No

Forced : No

Text #4

ID : 6

Format : UTF-8

Codec ID : S_TEXT/UTF8

Codec ID/Info : UTF-8 Plain Text

Duration : 1 h 48 min

Bit rate : 122 b/s

Count of elements : 2051

Stream size : 97.3 KiB (0%)

Title : British English

Language : English

Default : No

Forced : No

Text #5

ID : 7

Format : UTF-8

Codec ID : S_TEXT/UTF8

Codec ID/Info : UTF-8 Plain Text

Duration : 1 h 50 min

Bit rate : 59 b/s

Count of elements : 1557

Stream size : 47.9 KiB (0%)

Title : Chinese Simplified

Language : Chinese

Default : No

Forced : No

Text #6

ID : 8

Format : UTF-8

Codec ID : S_TEXT/UTF8

Codec ID/Info : UTF-8 Plain Text

Duration : 1 h 50 min

Bit rate : 49 b/s

Count of elements : 1835

Stream size : 40.2 KiB (0%)

Title : Chinese Traditional

Language : Chinese

Default : No

Forced : No

Text #7

ID : 9

Format : UTF-8

Codec ID : S_TEXT/UTF8

Codec ID/Info : UTF-8 Plain Text

Duration : 1 h 50 min

Bit rate : 51 b/s

Count of elements : 1531

Stream size : 41.5 KiB (0%)

Title : Croatian

Language : Croatian

Default : No

Forced : No

Text #8

ID : 10

Format : UTF-8

Codec ID : S_TEXT/UTF8

Codec ID/Info : UTF-8 Plain Text

Duration : 1 h 50 min

Bit rate : 59 b/s

Count of elements : 1555

Stream size : 48.4 KiB (0%)

Title : Czech

Language : Czech

Default : No

Forced : No

Text #9

ID : 11

Format : UTF-8

Codec ID : S_TEXT/UTF8

Codec ID/Info : UTF-8 Plain Text

Duration : 1 h 50 min

Bit rate : 58 b/s

Count of elements : 1443

Stream size : 47.1 KiB (0%)

Title : Danish

Language : Danish

Default : No

Forced : No

Text #10

ID : 12

Format : UTF-8

Codec ID : S_TEXT/UTF8

Codec ID/Info : UTF-8 Plain Text

Duration : 1 h 50 min

Bit rate : 52 b/s

Count of elements : 1478

Stream size : 42.5 KiB (0%)

Title : Dutch

Language : Dutch

Default : No

Forced : No

Text #11

ID : 13

Format : UTF-8

Codec ID : S_TEXT/UTF8

Codec ID/Info : UTF-8 Plain Text

Duration : 1 h 50 min

Bit rate : 60 b/s

Count of elements : 1256

Stream size : 48.6 KiB (0%)

Title : Finnish

Language : Finnish

Default : No

Forced : No

Text #12

ID : 14

Format : UTF-8

Codec ID : S_TEXT/UTF8

Codec ID/Info : UTF-8 Plain Text

Duration : 1 h 50 min

Bit rate : 59 b/s

Count of elements : 1492

Stream size : 48.0 KiB (0%)

Title : French

Language : French

Default : No

Forced : No

Text #13

ID : 15

Format : UTF-8

Codec ID : S_TEXT/UTF8

Codec ID/Info : UTF-8 Plain Text

Duration : 1 h 50 min

Bit rate : 62 b/s

Count of elements : 1433

Stream size : 50.3 KiB (0%)

Title : German

Language : German

Default : No

Forced : No

Text #14

ID : 16

Format : UTF-8

Codec ID : S_TEXT/UTF8

Codec ID/Info : UTF-8 Plain Text

Duration : 1 h 50 min

Bit rate : 96 b/s

Count of elements : 1559

Stream size : 77.6 KiB (0%)

Title : Greek

Language : Greek

Default : No

Forced : No

Text #15

ID : 17

Format : UTF-8

Codec ID : S_TEXT/UTF8

Codec ID/Info : UTF-8 Plain Text

Duration : 1 h 50 min

Bit rate : 93 b/s

Count of elements : 1464

Stream size : 75.7 KiB (0%)

Title : Hebrew

Language : Hebrew

Default : No

Forced : No

Text #16

ID : 18

Format : UTF-8

Codec ID : S_TEXT/UTF8

Codec ID/Info : UTF-8 Plain Text

Duration : 1 h 50 min

Bit rate : 56 b/s

Count of elements : 1505

Stream size : 45.5 KiB (0%)

Title : Hungarian

Language : Hungarian

Default : No

Forced : No

Text #17

ID : 19

Format : UTF-8

Codec ID : S_TEXT/UTF8

Codec ID/Info : UTF-8 Plain Text

Duration : 1 h 50 min

Bit rate : 63 b/s

Count of elements : 1492

Stream size : 51.6 KiB (0%)

Title : Indonesian

Language : Indonesian

Default : No

Forced : No

Text #18

ID : 20

Format : UTF-8

Codec ID : S_TEXT/UTF8

Codec ID/Info : UTF-8 Plain Text

Duration : 1 h 50 min

Bit rate : 55 b/s

Count of elements : 1486

Stream size : 45.1 KiB (0%)

Title : Italian

Language : Italian

Default : No

Forced : No

Text #19

ID : 21

Format : UTF-8

Codec ID : S_TEXT/UTF8

Codec ID/Info : UTF-8 Plain Text

Duration : 1 h 50 min

Bit rate : 55 b/s

Count of elements : 1678

Stream size : 45.0 KiB (0%)

Title : Japanese

Language : Japanese

Default : No

Forced : No

Text #20

ID : 22

Format : UTF-8

Codec ID : S_TEXT/UTF8

Codec ID/Info : UTF-8 Plain Text

Duration : 1 h 50 min

Bit rate : 74 b/s

Count of elements : 1529

Stream size : 60.1 KiB (0%)

Title : Korean

Language : Korean

Default : No

Forced : No

Text #21

ID : 23

Format : UTF-8

Codec ID : S_TEXT/UTF8

Codec ID/Info : UTF-8 Plain Text

Duration : 1 h 47 min

Bit rate : 58 b/s

Count of elements : 1553

Stream size : 46.3 KiB (0%)

Title : Malay

Language : Malay

Default : No

Forced : No

Text #22

ID : 24

Format : UTF-8

Codec ID : S_TEXT/UTF8

Codec ID/Info : UTF-8 Plain Text

Duration : 1 h 50 min

Bit rate : 55 b/s

Count of elements : 1438

Stream size : 44.5 KiB (0%)

Title : Norwegian Bokmal

Language : Norwegian Bokmal

Default : No

Forced : No

Text #23

ID : 25

Format : UTF-8

Codec ID : S_TEXT/UTF8

Codec ID/Info : UTF-8 Plain Text

Duration : 1 h 50 min

Bit rate : 55 b/s

Count of elements : 1353

Stream size : 44.7 KiB (0%)

Title : Polish

Language : Polish

Default : No

Forced : No

Text #24

ID : 26

Format : UTF-8

Codec ID : S_TEXT/UTF8

Codec ID/Info : UTF-8 Plain Text

Duration : 1 h 50 min

Bit rate : 58 b/s

Count of elements : 1513

Stream size : 47.4 KiB (0%)

Title : Portuguese

Language : Portuguese

Default : No

Forced : No

Text #25

ID : 27

Format : UTF-8

Codec ID : S_TEXT/UTF8

Codec ID/Info : UTF-8 Plain Text

Duration : 1 h 50 min

Bit rate : 57 b/s

Count of elements : 1532

Stream size : 46.1 KiB (0%)

Title : Brazilian Portuguese

Language : Portuguese

Default : No

Forced : No

Text #26

ID : 28

Format : UTF-8

Codec ID : S_TEXT/UTF8

Codec ID/Info : UTF-8 Plain Text

Duration : 1 h 50 min

Bit rate : 63 b/s

Count of elements : 1443

Stream size : 51.0 KiB (0%)

Title : Romanian

Language : Romanian

Default : No

Forced : No

Text #27

ID : 29

Format : UTF-8

Codec ID : S_TEXT/UTF8

Codec ID/Info : UTF-8 Plain Text

Duration : 1 h 50 min

Bit rate : 96 b/s

Count of elements : 1613

Stream size : 77.9 KiB (0%)

Title : Russian

Language : Russian

Default : No

Forced : No

Text #28

ID : 30

Format : UTF-8

Codec ID : S_TEXT/UTF8

Codec ID/Info : UTF-8 Plain Text

Duration : 1 h 50 min

Bit rate : 57 b/s

Count of elements : 1513

Stream size : 46.2 KiB (0%)

Title : Spanish

Language : Spanish

Default : No

Forced : No

Text #29

ID : 31

Format : UTF-8

Codec ID : S_TEXT/UTF8

Codec ID/Info : UTF-8 Plain Text

Duration : 1 h 50 min

Bit rate : 60 b/s

Count of elements : 1519

Stream size : 48.6 KiB (0%)

Title : European Spanish

Language : Spanish

Default : No

Forced : No

Text #30

ID : 32

Format : UTF-8

Codec ID : S_TEXT/UTF8

Codec ID/Info : UTF-8 Plain Text

Duration : 1 h 48 min

Bit rate : 103 b/s

Count of elements : 1806

Stream size : 82.8 KiB (0%)

Title : Swedish

Language : Swedish

Default : No

Forced : No

Text #31

ID : 33

Format : UTF-8

Codec ID : S_TEXT/UTF8

Codec ID/Info : UTF-8 Plain Text

Duration : 1 h 37 min

Bit rate : 1 b/s

Count of elements : 28

Stream size : 835 Bytes (0%)

Title : Forced

Language : Swedish

Default : No

Forced : Yes

Text #32

ID : 34

Format : UTF-8

Codec ID : S_TEXT/UTF8

Codec ID/Info : UTF-8 Plain Text

Duration : 1 h 50 min

Bit rate : 152 b/s

Count of elements : 1556

Stream size : 123 KiB (0%)

Title : Thai

Language : Thai

Default : No

Forced : No

Text #33

ID : 35

Format : UTF-8

Codec ID : S_TEXT/UTF8

Codec ID/Info : UTF-8 Plain Text

Duration : 1 h 50 min

Bit rate : 58 b/s

Count of elements : 1399

Stream size : 47.4 KiB (0%)

Title : Turkish

Language : Turkish

Default : No

Forced : No

Text #34

ID : 36

Format : UTF-8

Codec ID : S_TEXT/UTF8

Codec ID/Info : UTF-8 Plain Text

Duration : 1 h 50 min

Bit rate : 86 b/s

Count of elements : 1492

Stream size : 69.9 KiB (0%)

Title : Vietnamese

Language : Vietnamese

Default : No

Forced : No

Dancing Queens 2021 720p NF WDownload Torrent Magnet

#Dancing #Queens #720p