Dalida (2016) DVDrip 1080p AC Full Torrent Magnet Download

Download Torrent Dalida (2016) DVDrip 1080p AC Movie Full in HD Result. Movie Dalida (2016) DVDrip 1080p AC Torrent Download full. Movie Dalida (2016) DVDrip 1080p AC torrent Magnet Download Full. Dalida (2016) DVDrip 1080p AC Full Movie Torrent Download And Magnet Download For your PC And Mobiles. Latest Movie Dalida (2016) DVDrip 1080p AC Download Link In Bottom.

Torrent And Magnet Links Below

IMDB

Code:


General

Complete name : Dalida.(2016).DVDrip.1080p.AC3+AAC.[Borsalino].EN.srt

Format : SubRip

File size : 106 KiB

Text

Format : SubRip

Compression mode : Lossless

General

Complete name : Dalida.(2016).DVDrip.1080p.AC3+AAC.[Borsalino].FR.srt

Format : SubRip

File size : 105 KiB

Text

Format : SubRip

Compression mode : Lossless

General

Complete name : Dalida.(2016).DVDrip.1080p.AC3+AAC.[Borsalino].RO.srt

Format : SubRip

File size : 72.0 KiB

Text

Format : SubRip

Compression mode : Lossless

General

Complete name : Dalida.(2016).DVDrip.1080p.AC3+AAC.[Borsalino].RU.srt

Format : SubRip

File size : 88.8 KiB

Text

Format : SubRip

Compression mode : Lossless

General

Complete name : Dalida.(2016).DVDrip.1080p.AC3+AAC.[Borsalino].mkv

Format : Matroska

Format version : Version 4

File size : 1.74 GiB

Duration : 2 h 6 min

Overall bit rate : 1 966 kb/s

Movie name : Dalida.(2016).DVDrip.1080p.AC3+AAC.[Borsalino]
Writing application : mkvmerge v56.1.0 (‘My Friend’) 64-bit

Writing library : libebml v1.4.2 + libmatroska v1.6.4

Video

ID : 1

Format : AVC

Format/Info : Advanced Video Codec

Format profile : [email protected]
Format settings : CABAC / 5 Ref Frames

Format settings, CABAC : Yes

Format settings, Reference frames : 5 frames

Codec ID : V_MPEG4/ISO/AVC

Duration : 2 h 6 min

Bit rate : 1 420 kb/s

Width : 1 910 pixels

Height : 800 pixels

Display aspect ratio : 2.40:1

Frame rate mode : Constant

Frame rate : 23.976 (24000/1001) FPS

Color space : YUV

Chroma subsampling : 4:2:0

Bit depth : 8 bits

Scan type : Progressive

Bits/(Pixel*Frame) : 0.039

Stream size : 1.26 GiB (72%)

Title : French

Writing library : x264 core 148 r2708 86b7198

Encoding settings : cabac=1 / ref=5 / deblock=1:-1:-1 / analyse=0x3:0x113 / me=umh / subme=8 / psy=1 / psy_rd=1.00:0.15 / mixed_ref=1 / me_range=16 / chroma_me=1 / trellis=1 / 8x8dct=1 / cqm=0 / deadzone=21,11 / fast_pskip=1 / chroma_qp_offset=-3 / threads=18 / lookahead_threads=3 / sliced_threads=0 / nr=0 / decimate=1 / interlaced=0 / bluray_compat=0 / constrained_intra=0 / bframes=3 / b_pyramid=2 / b_adapt=2 / b_bias=0 / direct=3 / weightb=1 / open_gop=0 / weightp=2 / keyint=240 / keyint_min=24 / scenecut=40 / intra_refresh=0 / rc_lookahead=50 / rc=crf / mbtree=1 / crf=24.0 / qcomp=0.60 / qpmin=0 / qpmax=69 / qpstep=4 / vbv_maxrate=62500 / vbv_bufsize=78125 / crf_max=0.0 / nal_hrd=none / filler=0 / ip_ratio=1.40 / aq=1:1.00

Language : French

Default : Yes

Forced : No

Color range : Limited

Color primaries : BT.709

Transfer characteristics : BT.709

Matrix coefficients : BT.709

Audio #1

ID : 2

Format : AC-3

Format/Info : Audio Coding 3

Commercial name : Dolby Digital

Codec ID : A_AC3

Duration : 2 h 6 min

Bit rate mode : Constant

Bit rate : 384 kb/s

Channel(s) : 6 channels

Channel layout : L R C LFE Ls Rs

Sampling rate : 48.0 kHz

Frame rate : 31.250 FPS (1536 SPF)

Compression mode : Lossy

Delay relative to video : -5 ms

Stream size : 349 MiB (20%)

Title : French AC3

Language : French

Service kind : Complete Main

Default : Yes

Forced : No

Audio #2

ID : 3

Format : AAC LC

Format/Info : Advanced Audio Codec Low Complexity

Codec ID : A_AAC-2

Duration : 2 h 6 min

Bit rate : 160 kb/s

Channel(s) : 2 channels

Channel layout : L R

Sampling rate : 48.0 kHz

Frame rate : 46.875 FPS (1024 SPF)

Compression mode : Lossy

Delay relative to video : -21 ms

Stream size : 145 MiB (8%)

Title : French AAC

Language : French

Default : No

Forced : No

Text

ID : 4

Format : ASS

Codec ID : S_TEXT/ASS

Codec ID/Info : Advanced Sub Station Alpha

Duration : 1 h 54 min

Bit rate : 24 b/s

Count of elements : 440

Compression mode : Lossless

Stream size : 20.8 KiB (0%)

Title : French

Language : French

Default : No

Forced : No

Spoken language

Subtitles (srt files)












Dalida (2016) DVDrip 1080p ACDownload Torrent Magnet

#Dalida #DVDrip #1080p