Cruella – Crudelia (2021) 108 Full Torrent Magnet Download

Download Torrent Cruella – Crudelia (2021) 108 Movie Full in HD Result. Movie Cruella – Crudelia (2021) 108 Torrent Download full. Movie Cruella – Crudelia (2021) 108 torrent Magnet Download Full. Cruella – Crudelia (2021) 108 Full Movie Torrent Download And Magnet Download For your PC And Mobiles. Latest Movie Cruella – Crudelia (2021) 108 Download Link In Bottom.

Torrent And Magnet Links Below

Crudelia – Cruella (2021) 1080p h264 Ac3 5.1 Ita Eng Sub Ita Eng – MIRCrew

NO FOUND ONLY ORIGINAL RELEASE

My release is always in double track audio italian and Original audio

for select it use VLC or dvd player home

not use wmp

Crudelia – Cruella (2021)

Quality MIRCrew in HD 1080p da gb

Titolo originale Cruella

Lingua originale inglese

Paese di produzione Stati Uniti d’America

Anno 2021

Durata 134 min

Rapporto 1,85:1

Genere commedia, drammatico

Regia Craig Gillespie

Soggetto La carica dei 101 di Dodie Smith e

La carica dei cento e uno del 1961

Sceneggiatura Dana Fox, Tony McNamara, Aline Brosh McKenna, Kelly Marcel, Steve Zissis

Emma Stone: Estella / Cruella de Vil

Emma Thompson: Baronessa von Hellman

Joel Fry: Jasper Badun

Paul Walter Hauser: Horace Badun

Emily Beecham: Catherine de Vil

Mark Strong: John

Kirby Howell-Baptiste: Anita Darling

Nella Londra degli anni ’70, la giovane stilista Estella diventa ossessionata dalle pelli dei cani, in particolare quelle dei dalmata, fino a diventare una leggenda sempre più spietata e terrificante nota con il nome di Cruella de Vil.

Before she becomes Cruella de Vil? Teenaged Estella has a dream. She wishes to become a fashion designer, having been gifted with talent, innovation, and ambition all in equal measures. But life seems intent on making sure her dreams never come true.

General

Complete name : Crudelia – Cruella (2021) 1080p h264 Ac3 5.1 Ita Eng Sub Ita Eng – MIRCrewCrudelia – Cruella (2021) 1080p h264 Ac3 5.1 Ita Eng Sub Ita Eng – MIRCrew.mkv

Format : Matroska

Format version : Version 2

File size : 3.14 GiB

Duration : 2h 13mn

Overall bit rate : 3 356 Kbps

Movie name : MIRCrew

Encoded date : UTC 2021-05-28T16:44:28Z

Writing application : mkvmerge v5.8.0 (‘No Sleep / Pillow’) built on Sep 2 2012 15:37:04

Writing library : Lavf55.12.0

Video

ID : 1

Format : AVC

Format/Info : Advanced Video Codec

Format profile : [email protected]
Format settings, CABAC : Yes

Format settings, ReFrames : 4 frames

Codec ID : V_MPEG4/ISO/AVC

Duration : 2h 13mn

Bit rate : 2 600 Kbps

Width : 1 920 pixels

Height : 1 040 pixels

Display aspect ratio : 16:9

Frame rate mode : Variable

Frame rate : 23.976 fps

Color space : YUV

Chroma subsampling : 4:2:0

Bit depth : 8 bits

Scan type : Progressive

Bits/(Pixel*Frame) : 0.054

Stream size : 2.36 GiB (75%)

Title : MIRCrew

Writing library : x264 core 142 r2479 dd79a61

Encoding settings : cabac=1 / ref=1 / deblock=1:0:0
Language : Italian

Default : Yes

Forced : No

Color primaries : BT.709-5, BT.1361, IEC 61966-2-4, SMPTE RP177

Transfer characteristics : BT.709-5, BT.1361

Matrix coefficients : BT.709-5, BT.1361, IEC 61966-2-4 709, SMPTE RP177

Audio #1

ID : 2

Format : AC-3

Format/Info : Audio Coding 3

Mode extension : CM (complete main)

Codec ID : A_AC3

Duration : 2h 13mn

Bit rate mode : Constant

Bit rate : 384 Kbps

Channel(s) : 6 channels

Channel positions : Front: L C R, Side: L R, LFE

Sampling rate : 48.0 KHz

Bit depth : 16 bits

Compression mode : Lossy

Delay relative to video : -5ms

Stream size : 368 MiB (11%)

Title : Ita Ac3 5.1

Language : Italian

Default : Yes

Forced : No

Audio #2

ID : 3

Format : AC-3

Format/Info : Audio Coding 3

Mode extension : CM (complete main)

Codec ID : A_AC3

Duration : 2h 13mn

Bit rate mode : Constant

Bit rate : 384 Kbps

Channel(s) : 6 channels

Channel positions : Front: L C R, Side: L R, LFE

Sampling rate : 48.0 KHz

Bit depth : 16 bits

Compression mode : Lossy

Delay relative to video : -5ms

Stream size : 368 MiB (11%)

Title : Eng Ac3 5.1

Language : English

Default : No

Forced : No

[/spoiler]

Cruella – Crudelia (2021) 108Download Torrent Magnet

#Cruella #Crudelia