Cruella (2021) 2160p HDR 5.1 Full Torrent Magnet Download

Download Torrent Cruella (2021) 2160p HDR 5.1 Movie Full in HD Result. Movie Cruella (2021) 2160p HDR 5.1 Torrent Download full. Movie Cruella (2021) 2160p HDR 5.1 torrent Magnet Download Full. Cruella (2021) 2160p HDR 5.1 Full Movie Torrent Download And Magnet Download For your PC And Mobiles. Latest Movie Cruella (2021) 2160p HDR 5.1 Download Link In Bottom.

Torrent And Magnet Links Below

www.imdb.com/title/tt3228774/

A live-action prequel feature film following a young Cruella de Vil.

Source: CM (DSNP)

Format : Matroska

Format version : Version 4

File size : 3.13 GiB

Duration : 2 h 13 min

Overall bit rate : 3 351 kb/s

Writing application : HandBrake 1.3.3 2020061300

Writing library : Lavf58.29.100

Video

ID : 1

Format : HEVC

Format/Info : High Efficiency Video Coding

Format profile : Main [email protected]@High

Codec ID : V_MPEGH/ISO/HEVC

Duration : 2 h 13 min

Bit rate : 2 964 kb/s

Width : 3 840 pixels

Height : 2 080 pixels

Display aspect ratio : 1.85:1

Frame rate mode : Constant

Frame rate : 23.976 (24000/1001) FPS

Color space : YUV

Chroma subsampling : 4:2:0

Bit depth : 10 bits

Bits/(Pixel*Frame) : 0.015

Stream size : 2.77 GiB (88%)

Writing library : x265 3.2.1+1-b5c86a64bbbe:[Windows][GCC 9.2.0][64 bit] 10bit

Color range : Full

Color primaries : BT.2020

Transfer characteristics : PQ

Matrix coefficients : BT.2020 non-constant

Audio

ID : 2

Format : AC-3

Format/Info : Audio Coding 3

Commercial name : Dolby Digital

Codec ID : A_AC3

Duration : 2 h 13 min

Bit rate mode : Constant

Bit rate : 320 kb/s

Channel(s) : 6 channels

Channel layout : L R C LFE Ls Rs

Sampling rate : 48.0 kHz

Frame rate : 31.250 FPS (1536 SPF)

Compression mode : Lossy

Stream size : 307 MiB (10%)

Title : English

Language : English

Text
Language : French

Language : Danish

Language : Chinese

Language : Portuguese

Language : Norwegian

Language : Korean

Language : English

Language : Finnish

Language : French

Language : English

Language : Chinese

Language : Italian

Language : Polish

Language : Spanish

Language : Spanish

Language : Chinese

Language : German

Language : Swedish

Language : Portuguese

Language : Dutch

Default : No

Forced : No

Cruella (2021) 2160p HDR 5.1 Download Torrent Magnet

#Cruella #2160p #HDR