Cruella (2021) 1080p 5.1 – 2. Full Torrent Magnet Download

Download Torrent Cruella (2021) 1080p 5.1 – 2. Movie Full in HD Result. Movie Cruella (2021) 1080p 5.1 – 2. Torrent Download full. Movie Cruella (2021) 1080p 5.1 – 2. torrent Magnet Download Full. Cruella (2021) 1080p 5.1 – 2. Full Movie Torrent Download And Magnet Download For your PC And Mobiles. Latest Movie Cruella (2021) 1080p 5.1 – 2. Download Link In Bottom.

Torrent And Magnet Links Below

www.imdb.com/title/tt3228774/

A live-action prequel feature film following a young Cruella de Vil.

Source: CMRG (DSNP)

Format : MPEG-4

Format profile : Base Media / Version 2

Codec ID : mp42 (isom/iso2/avc1/mp41)

File size : 2.45 GiB

Duration : 2 h 13 min

Overall bit rate mode : Variable

Overall bit rate : 2 623 kb/s

Writing application : HandBrake 1.3.3 2020061300

Video

ID : 1

Format : AVC

Format/Info : Advanced Video Codec

Format profile : [email protected]
Format settings : CABAC / 1 Ref Frames

Format settings, CABAC : Yes

Format settings, Reference : 1 frame

Codec ID : avc1

Codec ID/Info : Advanced Video Coding

Duration : 2 h 13 min

Bit rate : 2 132 kb/s

Width : 1 920 pixels

Height : 1 040 pixels

Display aspect ratio : 1.85:1

Frame rate mode : Variable

Frame rate : 23.976 (24000/1001) FPS

Minimum frame rate : 23.974 FPS

Maximum frame rate : 23.981 FPS

Color space : YUV

Chroma subsampling : 4:2:0

Bit depth : 8 bits

Scan type : Progressive

Bits/(Pixel*Frame) : 0.045

Stream size : 1.99 GiB (81%)

Writing library : x264 core 157 r2935 545de2f

Color primaries : BT.709

Transfer characteristics : BT.709

Matrix coefficients : BT.709

Audio #1

ID : 2

Format : AC-3

Format/Info : Audio Coding 3

Commercial name : Dolby Digital

Codec ID : ac-3

Duration : 2 h 13 min

Bit rate mode : Constant

Bit rate : 320 kb/s

Channel(s) : 6 channels

Channel layout : L R C LFE Ls Rs

Sampling rate : 48.0 kHz

Frame rate : 31.250 FPS (1536 SPF)

Compression mode : Lossy

Stream size : 307 MiB (12%)

Title : English

Language : English

Service kind : Complete Main

Default : Yes

Audio #2

ID : 3

Format : AAC LC

Format/Info : Advanced Audio Codec Low Complexity

Codec ID : mp4a-40-2

Duration : 2 h 13 min

Bit rate mode : Constant

Bit rate : 160 kb/s

Channel(s) : 2 channels

Channel layout : L R

Sampling rate : 48.0 kHz

Frame rate : 46.875 FPS (1024 SPF)

Compression mode : Lossy

Stream size : 154 MiB (6%)

Title : English

Language : English

Text
Language : English

Default : Yes

Forced : No

Language : English

Language : Danish

Language : Chinese

Language : Portuguese

Language : French

Language : Norwegian

Language : Spanish

Language : Korean

Language : Spanish

Language : French

Language : Finnish

Language : Japanese

Language : French

Language : French

Language : Portuguese

Language : Chinese

Language : Italian

Language : Polish

Language : German

Language : Spanish

Language : Spanish

Language : Chinese

Language : German

Language : Swedish

Language : Portuguese

Language : Polish

Language : Dutch

Language : Portuguese

Language : Italian

Default : No

Forced : No

Cruella (2021) 1080p 5.1 – 2.Download Torrent Magnet

#Cruella #1080p